TORRENTS43.COM

Скачать Ледниковый период / Age of Ice (2014) BDRip 3D [H.264/1080p] [Горизонтальная анаморфная стереопара]


Ледниковый период / Age of Ice (2014) BDRip 3D(HSBS)[1080p]
Производство: США, Asylum, The
Жанр: Фантастика, Боевик

Режиссер: Эмиль Эдвин Смит
Актеры: Бартон Банд, Бэйли Спрай, Жуль Хартли, Джо Киприано, Васим Но’мани, Ревон Юсиф, Али Эмин

Описание фильма:
Глобальные землетрясения сдвинули на земле какую то тектоническую плиту, в результате которой на планету обрушились холода. Американская семья пытается убраться подальше от холода, проезжая мимо бедных верблюдов, мерзнувших в погребенной под снегом, пустыне Сахара.



Продолжительность: 01:24:41
Качество видео: BDRip
Перевод: Одноголосый закадровый
Автор перевода: Хихикающий доктор
Язык субтитров: Английский
Вид субтитров: Вшитые, отключаемые

Видеокодек: AVC/H.264
Битрейт видео: ~9940 Кбит/сек
Размер кадра: 1920х1080
Аудиокодек: AC3 2.0, DTS 5.1
Битрейт аудио:
Русский AC3 192 Kbps 48.0 KHz, Хихидок
Английский DTS 1152 Kbps 48.0 KHz
Сэмпл: Ссылка

Mediainfo:

Код:

Общее
Уникальный идентификатор                 : 191896314580164751885742347513292179891 (0x905DE2C6DA412CD9893DAF265DC0C9B3)
Полное имя                               : E:\MMMM\Age.of.Ice.2014.3D(HSBS).1080p.BluRay.x264.mkv
Формат                                   : Matroska
Версия формата                           : Version 4 / Version 2
Размер файла                             : 6,67 Гбайт
Продолжительность                        : 1 ч. 24 м.
Общий поток                              : 11,3 Мбит/сек
Дата кодирования                         : UTC 2015-03-28 16:58:48
Программа кодирования                    : mkvmerge v6.9.1 ('Blue Panther') 64bit built on Apr 18 2014 18:23:38
Библиотека кодирования                   : libebml v1.3.0 + libmatroska v1.4.1
DURATION                                 : 01:24:41.227000000
NUMBER_OF_FRAMES                         : 476365
NUMBER_OF_BYTES                          : 731696708
_STATISTICS_WRITING_APP                  : mkvmerge v7.5.0 ('Glass Culture') 64bit built on Jan  4 2015 16:48:44
_STATISTICS_WRITING_DATE_UTC             : 2015-01-21 10:04:12
_STATISTICS_TAGS                         : BPS DURATION NUMBER_OF_FRAMES NUMBER_OF_BYTES

Видео
Идентификатор                            : 1
Формат                                   : AVC
Формат/Информация                        : Advanced Video Codec
Профиль формата                          : High@L4.1
MultiView_Count                          : 2
MultiView_Layout                         : Side by Side (left eye first)
Параметр CABAC формата                   : Да
Параметр ReFrames формата                : 4 кадра
Идентификатор кодека                     : V_MPEG4/ISO/AVC
Продолжительность                        : 1 ч. 24 м.
Битрейт                                  : 9940 Кбит/сек
Ширина                                   : 1920 пикселей
Высота                                   : 1080 пикселей
Соотношение сторон                       : 16:9
Режим частоты кадров                     : Постоянный
Частота кадров                           : 23,976 кадра/сек
Цветовое пространство                    : YUV
Субдискретизация насыщенности            : 4:2:0
Битовая глубина                          : 8 бит
Тип развёртки                            : Прогрессивная
Бит/(Пиксели*Кадры)                      : 0.200
Размер потока                            : 5,75 Гбайт (86%)
Библиотека кодирования                   : x264 core 142 r2491 24e4fed
Настройки программы                      : cabac=1 / ref=4 / deblock=1:0:0 / analyse=0x3:0x113 / me=umh / subme=8 / psy=1 / psy_rd=1.00:0.00 / mixed_ref=1 / me_range=16 / chroma_me=1 / trellis=1 / 8x8dct=1 / cqm=0 / deadzone=21,11 / fast_pskip=0 / chroma_qp_offset=-2 / threads=6 / lookahead_threads=1 / sliced_threads=0 / nr=0 / decimate=1 / interlaced=0 / bluray_compat=0 / constrained_intra=0 / bframes=3 / b_pyramid=2 / b_adapt=2 / b_bias=0 / direct=3 / weightb=1 / open_gop=0 / weightp=2 / keyint=250 / keyint_min=23 / scenecut=40 / intra_refresh=0 / rc_lookahead=50 / rc=2pass / mbtree=1 / bitrate=9940 / ratetol=1.0 / qcomp=0.60 / qpmin=0 / qpmax=69 / qpstep=4 / cplxblur=20.0 / qblur=0.5 / frame-packing=3 / ip_ratio=1.40 / aq=1:1.00
Default                                  : Да
Forced                                   : Нет

Аудио #1
Идентификатор                            : 2
Формат                                   : AC-3
Формат/Информация                        : Audio Coding 3
Профиль формата                          : Dolby Digital
Расширение режима                        : CM (complete main)
Параметр Endianness формата              : Big
Идентификатор кодека                     : A_AC3
Продолжительность                        : 1 ч. 24 м.
Вид битрейта                             : Постоянный
Битрейт                                  : 192 Кбит/сек
Каналы                                   : 2 канала
Расположение каналов                     : Front: L R
Частота                                  : 48,0 КГц
Битовая глубина                          : 16 бит
Метод сжатия                             : С потерями
Размер потока                            : 116 Мбайт (2%)
Заголовок                                : xixidok
Язык                                     : Russian
Default                                  : Да
Forced                                   : Нет

Аудио #2
Идентификатор                            : 3
Формат                                   : DTS
Формат/Информация                        : Digital Theater Systems
Режим                                    : 16
Параметр Endianness формата              : Big
Идентификатор кодека                     : A_DTS
Продолжительность                        : 1 ч. 24 м.
Вид битрейта                             : Постоянный
Битрейт                                  : 1152 Кбит/сек
Каналы                                   : 6 каналов
Расположение каналов                     : Front: L C R, Side: L R, LFE
Частота                                  : 48,0 КГц
Битовая глубина                          : 16 бит
Метод сжатия                             : С потерями
Размер потока                            : 698 Мбайт (10%)
Язык                                     : English
Default                                  : Нет
Forced                                   : Нет

Текст
Идентификатор                            : 4
Формат                                   : UTF-8
Идентификатор кодека                     : S_TEXT/UTF8
Идентификатор кодека/Информация          : UTF-8 Plain Text
Язык                                     : English
Default                                  : Нет
Forced                                   : Нет

Меню
00:00:00.000                             : en:00:00:00.000
00:09:59.974                             : en:00:09:59.974
00:19:59.990                             : en:00:19:59.990
00:29:59.965                             : en:00:29:59.965
00:39:59.981                             : en:00:39:59.981
00:49:59.997                             : en:00:49:59.997
00:59:59.971                             : en:00:59:59.971
01:09:59.987                             : en:01:09:59.987
01:19:59.962                             : en:01:19:59.962
Скриншоты:

Дополнительные скриншоты:



Смотреть Online

http://moonwalk.cc/video/08dd4b87d2f20857/iframe
Детали торрента:
Название:Ледниковый период / Age of Ice (2014) BDRip 3D [H.264/1080p] [Горизонтальная анаморфная стереопара]
Дата добавления:29 Мар 2015 13:57:40
Размер:6,67 GB
Раздают:
Качают:0
Форум:Грайндхаус

All rights reserved © 2015-2018