TORRENTS43.COM

Скачать Mylene Farmer - Timeless 2013 Le Film (2014) BDRip [H.264/720p]


Mylene Farmer - Timeless 2013 Le Film (2014) BDRip [H.264/720p]
« Два часа французского рая »

Производство: Франция | Stuffed Monkey
Жанр: Pop

Режиссер: Франсуа Ансс
Исполнители: Милен Фармер

Описание: Timeless 2013 - шестой концертный тур французской певицы Милен Фармер в поддержку альбома Monkey Me. Тур стартовал во дворце спорта Берси в Париже 7 сентября 2013 года и закончился в Ницце 6 декабря. Во время концертов Милен меняла шесть костюмов, автором которых является Жан-Поль Готье. Оформление сцены разрабатывал Марк Фишер, он же создавал декорации для туров 2006 и 2009 года. Декорации строила компания Artefact, известная по работе над прошлыми шоу Фармер. На сцене во время песни «C’est une belle journee» появляются танцующие роботы.



Продолжительность: 02:06:43
Качество видео: BDRip [H.264/720p]

Перевод: Отсутствует
Вид субтитров: Вшитые отключаемые
Язык субтитров: Русский

Видео: MPEG-4 AVC/H.264, 6000 Kbps, 1280 x 534
Аудио: DTS 5.1, 1509 Kbps, 48.0 KHz

Треклист

Треклист:
01. Prologue
02. Timeless Genesis
03. A force de…
04. Comme j’ai mal
05. C’est une belle journee
06. Monkey Me
07. Slipping away (Crier la vie) en duo avec Moby
08. Elle a dit
09. Oui mais… Non
10. Timeless Ballet
11. Mad World en duo avec Gary Jules
12. Les Mots en duo avec Gary Jules
13. Je te dis tout
14. Et pourtant…
15. Desenchantee
16. Bleu Noir
17. Diabolique mon ange
18. Sans contrefacon
19. Maman a tort
20. Je t’aime melancolie
21. XXL
22. A l’ombre
23. Inseparables
24. Rever
25. Endlessly

Blu-ray

MediaInfo

Общее
Полное имя : Mylene Farmer. Timeless 2013 Le Film.mkv
Формат : Matroska
Версия формата : Version 1
Размер файла : 6,65 Гбайт
Продолжительность : 2 ч. 6 м.
Общий поток : 7512 Кбит/сек
Дата кодирования : UTC 2015-04-06 19:19:08
Программа кодирования : mkvmerge v2.4.1 ('Use Me') built on Dec 5 2008 18:30:05
Библиотека кодирования : libebml v0.7.7 + libmatroska v0.8.1

Видео
Идентификатор : 1
Формат : AVC
Формат/Информация : Advanced Video Codec
Профиль формата : High@L4.1
Параметр CABAC формата : Да
Параметр ReFrames формата : 10 кадров
Идентификатор кодека : V_MPEG4/ISO/AVC
Продолжительность : 2 ч. 6 м.
Битрейт : 6000 Кбит/сек
Ширина : 1280 пикселей
Высота : 534 пикселя
Соотношение сторон : 2,40:1
Режим частоты кадров : Постоянный
Частота кадров : 25,000 кадров/сек
Цветовое пространство : YUV
Субдискретизация насыщенности : 4:2:0
Битовая глубина : 8 бит
Тип развёртки : Прогрессивная
Бит/(Пиксели*Кадры) : 0.351
Размер потока : 5,18 Гбайт (78%)
Заголовок : Mylene Farmer: Timeless 2013 Le Film (2014)
Библиотека кодирования : x264 core 146 r2538 121396c
Настройки программы : cabac=1 / ref=10 / deblock=1:-3:-3 / analyse=0x3:0x133 / me=umh / subme=10 / psy=1 / psy_rd=1.00:0.10 / mixed_ref=1 / me_range=48 / chroma_me=1 / trellis=2 / 8x8dct=1 / cqm=0 / deadzone=21,11 / fast_pskip=0 / chroma_qp_offset=-3 / threads=6 / lookahead_threads=1 / sliced_threads=0 / nr=0 / decimate=1 / interlaced=0 / bluray_compat=0 / constrained_intra=0 / bframes=5 / b_pyramid=2 / b_adapt=2 / b_bias=0 / direct=3 / weightb=1 / open_gop=0 / weightp=2 / keyint=250 / keyint_min=23 / scenecut=40 / intra_refresh=0 / rc_lookahead=40 / rc=2pass / mbtree=1 / bitrate=6000 / ratetol=1.0 / qcomp=0.60 / qpmin=10 / qpmax=51 / qpstep=4 / cplxblur=20.0 / qblur=0.5 / ip_ratio=1.40 / aq=1:1.00
Язык : French

Аудио
Идентификатор : 2
Формат : DTS
Формат/Информация : Digital Theater Systems
Профиль формата : 96/24 / Core
Режим : 16
Параметр Endianness формата : Big
Идентификатор кодека : A_DTS
Продолжительность : 2 ч. 6 м.
Вид битрейта : Постоянный
Битрейт : 1509 Кбит/сек
Каналы : 6 каналов
Расположение каналов : Front: L C R, Side: L R, LFE
Частота : 96,0 КГц / 48,0 КГц
Битовая глубина : 24 бит
Метод сжатия : С потерями
Размер потока : 1,34 Гбайт (20%)
Заголовок : DTS (Оригинал)
Язык : French

Текст
Идентификатор : 3
Формат : UTF-8
Идентификатор кодека : S_TEXT/UTF8
Идентификатор кодека/Информация : UTF-8 Plain Text
Заголовок : Русские
Язык : Russian

Меню
00:00:00.000 : fr:Prologue
00:03:00.440 : fr:Timeless Genesis
00:07:19.160 : fr:A force de…
00:12:18.400 : fr:Comme j’ai mal
00:16:12.240 : fr:C’est une belle journee
00:21:55.040 : fr:Monkey Me
00:27:21.560 : fr:Slipping away (Crier la vie) en duo avec Moby
00:31:12.400 : fr:Elle a dit
00:34:53.680 : fr:Oui mais… Non
00:39:22.480 : fr:Timeless Ballet
00:43:55.080 : fr:Mad World en duo avec Gary Jules
00:47:46.160 : fr:Les Mots en duo avec Gary Jules
00:53:27.040 : fr:Je te dis tout
00:58:55.640 : fr:Et pourtant…
01:05:03.240 : fr:Desenchantee
01:14:06.000 : fr:Bleu Noir
01:18:31.320 : fr:Diabolique mon ange
01:25:28.000 : fr:Sans contrefacon
01:30:53.680 : fr:Maman a tort
01:32:37.680 : fr:Je t’aime melancolie
01:37:30.000 : fr:XXL
01:39:12.000 : fr:A l’ombre
01:43:54.600 : fr:Inseparables
01:51:14.360 : fr:Rever
01:56:02.600 : fr:Endlessly
Скриншоты:

Mylene Farmer - Timeless 2013 Le Film на Torrents43.com
Детали торрента:
Название:Mylene Farmer - Timeless 2013 Le Film (2014) BDRip [H.264/720p]
Дата добавления:06 Апр 2015 22:29:54
Размер:6,65 GB
Раздают:3
Качают:0
Форум:Концерты (HD)

All rights reserved © 2015-2018