TORRENTS43.COM

Скачать Петроченков Антон, Новиков Евгений | Идеальный Landing Page (2014) PCRec


Петроченков Антон, Новиков Евгений | Идеальный Landing Page (2014) PCRec
Автор (режиссер): Петроченков Антон, Новиков Евгений
Жанр: Создание сайтов
Продолжительность: 10:34:13
Качество видео: PCRec
Видеокодек: AVC
Битрейт видео: ~135 kbps
Размер кадра: 1278х720
Аудиокодек: AAC 2.0
Битрейт аудио: 126 kbps (CBR), 2 Ch, 44100 Hz

Описание:
Как с полного нуля и своими руками создать Landing Page, даже если раньше вы этим не занимались? Идеальный Landing Page это пошаговый курс по созданию посадочных страниц с конверсией от 5%. Вы получите пошаговый алгоритм создания идеальной посадочной страницы и получите десятки новых клиентов ежедневно.

Дополнительная информация:

Что ты получишь на курсе?
Деньги с новых клиентов
Система привлечения клиентов
Навык создания крутых Landing Page на всю жизнь

Этот курс идеально подойдет:
Начинающий предприниматель
Владелец бизнеса
Интернет-маркетолог
Начинающий арбитражник
Специалист по контексту
Специалист с большим опытом тестов
Создатели Google и Яндекс

У тебя точно получится первоклассный лендинг, даже если ты:
Не имеешь представления, что такое интернет-маркетинг
Не знаешь ничего о дизайне
Считаешь, что твои тексты получаются коряво
Занимаешься очень специфичной нишей
Ленивый кот

Программа курса:

Занятие 1-2
Покупка в интернет: факторы, влияющие на принятие решения
Модель неизбежных продаж
Выгоды покупателя
Результат: Твое предложение, которое превратит посетителей сайта в покупателей.

Занятие 3
Пять главных элементов лендинга
Технология написания продающих заголовков
Как подобрать эффективное изображение
Как создать мощный призыв к действию
"Следующий шаг" и его критическое влияние на конверсию сайта
Результат: Готовая структура и убойные тексты на первый экран.

Занятие 4
Дополнительные элементы конверсии
Как правильно использовать отзывы
Статистика и факторы доверия к сайту
Как снять возражения покупателей
Результат: Полностью готовое техзадание для дизайнера.

Занятие 5
Дизайн: красивый или конверсионный
Как правильно оформить лендинг
Как выбрать правильного дизайнера
Результат: Продающая посадочная страница с правильными акцентами.

Занятие 6
Технические факторы, влияющие на конверсию посадочной страницы
Настройка аналитики
Как делать сплит-тестирование и бесконечно увеличивать конверсию
Результат: Система Продаж через интернет "под ключ".

MediaInfo:

Общее
Формат : MPEG-4
Профиль формата : Base Media / Version 2
Идентификатор кодека : mp42
Размер файла : 204 Мбайт
Режим общего битрейта : Переменный
Общий поток : 264 Кбит/сек

Видео
Идентификатор : 1
Формат : AVC
Формат/Информация : Advanced Video Codec
Профиль формата : Main@L3.1
Параметр CABAC формата : Да
Параметр ReFrames формата : 3 кадра
Идентификатор кодека : avc1
Идентификатор кодека/Информация : Advanced Video Coding
Битрейт : 135 Кбит/сек
Ширина : 1278 пикселей
Высота : 720 пикселей
Соотношение сторон : 16:9
Режим частоты кадров : Переменный
Частота кадров : 30,000 кадров/сек
Минимальная частота кадров : 30,000 кадров/сек
Максимальная частота кадров : 30,030 кадров/сек
Стандарт вещания : NTSC
Цветовое пространство : YUV
Субдискретизация насыщенности : 4:2:0
Битовая глубина : 8 бит
Тип развёртки : Прогрессивная
Бит/(Пиксели*Кадры) : 0.005
Размер потока : 105 Мбайт (51%)
Размер потока оригинала : 105 Мбайт (51%)

Аудио
Идентификатор : 2
Формат : AAC
Формат/Информация : Advanced Audio Codec
Профиль формата : LC
Идентификатор кодека : 40
Вид битрейта : Переменный
Битрейт : 126 Кбит/сек
Максимальный битрейт : 222 Кбит/сек
Каналы : 2 канала
Расположение каналов : Front: L R
Частота : 44,1 КГц
Метод сжатия : С потерями
Размер потока : 97,4 Мбайт (48%)
Размер потока оригинала : 97,4 Мбайт (48%)
Скриншоты:


Детали торрента:
Название:Петроченков Антон, Новиков Евгений | Идеальный Landing Page (2014) PCRec
Дата добавления:09 Апр 2015 18:34:35
Размер:8,86 GB
Раздают:1
Качают:0
Форум:Компьютеры

All rights reserved © 2015-2018