TORRENTS43.COM

Скачать Раскоп (2014) WEB-DL [720p] ATV


Раскоп (2014) WEB-DL [720p] ATV
«Дружба - не дружба... Любовь - не любовь...»

Год выпуска: 2014
Производство: Россия
Жанр: Драма, комедия
Продолжительность: 01:23:21

Перевод: Не требуется
Режиссер: Сергей Дахин
Актеры: Кирилл Пирогов, Олег Нирян, Екатерина Федулова, Никита Тюнин, Владас Багдонас, Александр Петров, Ксения Богданова, Наталия Денисенко, Александр Безсмертный

Премьера (РФ): 22 января 2015



Описание: Писатель-неудачник Паша и двое его школьных друзей — алкоголик-бизнесмен Самородов и примерный семьянин Скляренко, заскучав от повседневной суеты, жён и рутины, решают отправиться в отпуск навстречу приключениям. Волею судьбы сорокалетние мальчишки оказываются на археологическом раскопе. Получив возможность столкнуться со своим прошлым, Паша, освободившись от иллюзий, комплексов и страхов, наконец, обретает внутреннюю гармонию…
Качество: WEB-DL
Контейнер: M4V
Видео: H.264, 1280x522, 2.452, 3 994 Kbps, 24.000 fps

Аудио 1: Русский/Оригинальная дорожка , AAC / 2.0 / 158 Kbps / 48.0 KHz
Аудио 2: Русский/Оригинальная дорожка , AC-3 / 5.1 / 384 Kbps / 48.0 KHz

iTunes Meta Tags

Код:

Sort Name: Раскоп
XID: Apple:vendor_id:2014-840670
contentID: 984487063
Copyright: © 2014 Кинокомпания Любители
Screenwriters: Максим Курочкин
Producers: Диана Шалашная, Александр Морозов
Director: Сергей Дахин
Cast: Кирилл Пирогов, Олег Нирян, Екатерина Федулова, Никита Тюнин, Владас Багдонас, Александр Петров, Ксения Богданова, Наталия Денисенко, Александр Безсмертный
Studio: Кинокомпания Любители
Rating: 3
Long Description: Писатель-неудачник Паша и двое его школьных друзей - алкоголик-бизнесмен Самородов и примерный семьянин Скляренко, заскучав от повседневной суеты, жён и рутины, решают отправиться в отпуск навстречу приключениям. Волею судьбы сорокалетние мальчишки оказываются на археологическом раскопе. Получив возможность столкнуться со своим прошлым, Паша, освободившись от иллюзий, комплексов и страхов, наконец, обретает внутреннюю гармонию...
Description: Писатель-неудачник Паша и двое его школьных друзей - алкоголик-бизнесмен Самородов и примерный семьянин Скляренко, заскучав от повседневной суеты, жён и рутины, решают отправиться в отпуск навстречу приключениям. Волею судьбы сорокалетние мальчишки оказываются на археологическом раскопе. Получив возможность столкнуться со своим прошлым, Паша, освободившись от иллюзий, комплексов и страхов, наконец, обретает внутреннюю гармонию...
Release Date: 2014-01-01T08:00:00Z
Genre: Российское кино
Artist: Сергей Дахин
Name: Раскоп

MediaInfo

Код:

General
Complete name                            : /Users/imac/HandBrake/Raskop.720p.WEB-DL.m4v
Format                                   : MPEG-4
Codec ID                                 : M4V
File size                                : 2.65 GiB
Duration                                 : 1h 23mn
Overall bit rate mode                    : Variable
Overall bit rate                         : 4 546 Kbps
Movie name                               : Раскоп
Performer                                : Сергей Дахин
Genre                                    : Российское кино
Recorded date                            : UTC 2014-01-01 08:00:00
Encoded date                             : UTC 2015-05-05 11:20:56
Tagged date                              : UTC 2015-05-05 22:22:51
Copyright                                : © 2014 Кинокомпания Любители
Cover                                    : Yes
sonm                                     : Раскоп
desc                                     : Писатель-неудачник Паша и двое его школьных друзей - алкоголик-бизнесмен Самородов и примерный семьянин Скляренко, заскучав от повседневной суеты, жён и рутины, решают отправиться в отпуск навстречу приключениям. Волею судьбы сорокалетние мальчишки оказываются на археологическом раскопе. Получив возможность столкнуться со своим прошлым, Паша, освободившись от иллюзий, комплексов и страхов, наконец, обретает внутреннюю гармонию...
ldes                                     : Писатель-неудачник Паша и двое его школьных друзей - алкоголик-бизнесмен Самородов и примерный семьянин Скляренко, заскучав от повседневной суеты, жён и рутины, решают отправиться в отпуск навстречу приключениям. Волею судьбы сорокалетние мальчишки оказываются на археологическом раскопе. Получив возможность столкнуться со своим прошлым, Паша, освободившись от иллюзий, комплексов и страхов, наконец, обретает внутреннюю гармонию...
hdvd                                     : 1
stik                                     : 9
rtng                                     : 0
cnID                                     : 984487063
xid                                      : Apple:vendor_id:2014-840670
iTunEXTC                                 : ru-movie|12+|200|
iTunMOVI                                 : <?xml version=\"1.0\" encoding=\"UTF-8\"?> / <!DOCTYPE plist PUBLIC \"-//Apple//DTD PLIST 1.0//EN\" \"http://www.apple.com/DTDs/PropertyList-1.0.dtd\"> / <plist version=\"1.0\"> / <dict> /   <key>cast</key> /   <array> /     <dict> /       <key>name</key> /       <string>Кирилл Пирогов</string> /     </dict> /     <dict> /       <key>name</key> /       <string>Олег Нирян</string> /     </dict> /     <dict> /       <key>name</key> /       <string>Екатерина Федулова</string> /     </dict> /     <dict> /       <key>name</key> /       <string>Никита Тюнин</string> /     </dict> /     <dict> /       <key>name</key> /       <string>Владас Багдонас</string> /     </dict> /     <dict> /       <key>name</key> /       <string>Александр Петров</string> /     </dict> /     <dict> /       <key>name</key> /       <string>Ксения Богданова</string> /     </dict> /     <dict> /       <key>name</key> /       <string>Наталия Денисенко</string> /     </dict> /     <dict> /       <key>name</key> /       <string>Александр Безсмертный</string> /     </dict> /   </array> /   <key>directors</key> /   <array> /     <dict> /       <key>name</key> /       <string>Сергей Дахин</string> /     </dict> /   </array> /   <key>producers</key> /   <array> /     <dict> /       <key>name</key> /       <string>Диана Шалашная</string> /     </dict> /     <dict> /       <key>name</key> /       <string>Александр Морозов</string> /     </dict> /   </array> /   <key>screenwriters</key> /   <array> /     <dict> /       <key>name</key> /       <string>Максим Курочкин</string> /     </dict> /   </array> /   <key>studio</key> /   <string>Кинокомпания Любители</string> / </dict> / </plist>

Video #1
ID                                       : 1
Format                                   : AVC
Format/Info                              : Advanced Video Codec
Format profile                           : Main@L3.1
Format settings, CABAC                   : No
Format settings, ReFrames                : 2 frames
Codec ID                                 : avc1
Codec ID/Info                            : Advanced Video Coding
Duration                                 : 1h 23mn
Bit rate                                 : 3 994 Kbps
Maximum bit rate                         : 13.9 Mbps
Width                                    : 1 280 pixels
Height                                   : 522 pixels
Display aspect ratio                     : 2.452
Frame rate mode                          : Constant
Frame rate                               : 24.000 fps
Color space                              : YUV
Chroma subsampling                       : 4:2:0
Bit depth                                : 8 bits
Scan type                                : Progressive
Bits/(Pixel*Frame)                       : 0.249
Stream size                              : 2.33 GiB (88%)
Title                                    : Raskop _2014_ _ Release for HDCLUB
Language                                 : Russian
Encoded date                             : UTC 2015-05-05 11:20:56
Tagged date                              : UTC 2015-05-05 11:22:09
Color primaries                          : BT.709-5, BT.1361, IEC 61966-2-4, SMPTE RP177
Transfer characteristics                 : BT.709-5, BT.1361
Matrix coefficients                      : BT.709-5, BT.1361, IEC 61966-2-4 709, SMPTE RP177

Video #2
ID                                       : 5
Format                                   : JPEG
Codec ID                                 : jpeg
Duration                                 : 1h 23mn
Bit rate mode                            : Variable
Bit rate                                 : 981 bps
Width                                    : 640 pixels
Height                                   : 261 pixels
Display aspect ratio                     : 2.452
Frame rate mode                          : Variable
Frame rate                               : 0.003 fps
Minimum frame rate                       : 0.002 fps
Maximum frame rate                       : 0.005 fps
Color space                              : YUV
Chroma subsampling                       : 4:2:0
Bit depth                                : 8 bits
Compression mode                         : Lossy
Bits/(Pixel*Frame)                       : 1.958
Stream size                              : 679 KiB (0%)
Language                                 : Russian
Encoded date                             : UTC 2015-05-05 22:22:51
Tagged date                              : UTC 2015-05-05 22:22:51

Audio #1
ID                                       : 2
Format                                   : AAC
Format/Info                              : Advanced Audio Codec
Format profile                           : LC
Codec ID                                 : 40
Duration                                 : 1h 23mn
Bit rate mode                            : Variable
Bit rate                                 : 158 Kbps
Maximum bit rate                         : 224 Kbps
Channel(s)                               : 2 channels
Channel positions                        : Front: L R
Sampling rate                            : 48.0 KHz
Compression mode                         : Lossy
Stream size                              : 94.0 MiB (3%)
Title                                    : AAC AC3 5.1 _ 384 kbps
Language                                 : Russian
Encoded date                             : UTC 2015-05-05 11:19:15
Tagged date                              : UTC 2015-05-05 11:22:09

Audio #2
ID                                       : 3
Format                                   : AC-3
Format/Info                              : Audio Coding 3
Mode extension                           : CM (complete main)
Format settings, Endianness              : Big
Codec ID                                 : ac-3
Duration                                 : 1h 23mn
Bit rate mode                            : Constant
Bit rate                                 : 384 Kbps
Channel(s)                               : 6 channels
Channel positions                        : Front: L C R, Side: L R, LFE
Sampling rate                            : 48.0 KHz
Bit depth                                : 16 bits
Compression mode                         : Lossy
Stream size                              : 229 MiB (8%)
Title                                    : AC3 AC3 5.1 _ 384 kbps
Language                                 : Russian
Encoded date                             : UTC 2015-05-05 11:22:04
Tagged date                              : UTC 2015-05-05 11:22:09

Text
ID                                       : 4
Format                                   : Apple text
Codec ID                                 : text
Duration                                 : 1h 23mn
Bit rate mode                            : Variable
Bit rate                                 : 0 bps
Stream size                              : 263 Bytes (0%)
Language                                 : Russian
Encoded date                             : UTC 2015-05-05 11:23:12
Tagged date                              : UTC 2015-05-05 11:23:12

Скриншоты:




Релиз подготовлен для просмотра на Apple TV, iPad, iPhone, iPod Touch.
Для просмотра данного релиза на компьютере с ОС Windows рекомендуется использовать VLC media player

Смотреть Online

http://37.220.36.15/video/f7b6388c79c6e798/iframe
Детали торрента:
Название:Раскоп (2014) WEB-DL [720p] ATV
Дата добавления:06 Май 2015 01:38:41
Размер:2,65 GB
Раздают:
Качают:0
Форум:Отечественное видео HD для устройств Apple

All rights reserved © 2015-2018