TORRENTS43.COM

Скачать Паромщик / Barquero (1970) HDTV [H.264/1080i]


Паромщик / Barquero (1970) HDTV [H.264/1080i]
Производство: США, Aubrey Schenck Productions
Жанр: Вестерн

Режиссер: Гордон Дуглас
Актеры: Ли Ван Клиф, Уоррен Оутс, Форрест Такер, Кервин Мэтьюз, Мэриетт Хартли, Мари Гомез, Армандо Сильвестре, Джон Дэвис Чэндлер, Крэйг Литтлер, Эд Бэйки

Описание:
Маленький городок недалеко от границы с Мексикой переживает нападение бандитов-повстанцев. Захватив оружие, они продвигаются к границе, дабы уйти в Мексику и продолжить свою революционную борьбу. Как и все революционеры, они люди упёртые и не перед чем не останавливающиеся. Но натыкаются на одно малозначительное препятствие — паромщика «Баркуэро». Он никак не хочет разделить их революционные взгляды и отдать им свой паром. Другим способом переправиться через реку невозможно…



Продолжительность: 01:44:28
Качество видео: HDTV [1080i]
Перевод: Двуголосый закадровый
Автор перевода: Юрий Сербин

Видеокодек: AVC/H.264
Битрейт видео: ~6789 kb/s
Размер кадра: 1920х1080
Аудиокодек: MP2, 2ch
Битрейт аудио: 192 kb/s VBR
Сэмпл: Ссылка

Mediainfo:

Код: выделить все

Общее
Идентификатор                            : 16 (0x10)
Полное имя                               : Barquero_HD.ts
Формат                                   : MPEG-TS
Размер файла                             : 5,36 Гбайт
Продолжительность                        : 1 ч. 44 м.
Режим общего битрейта                    : Переменный
Общий поток                              : 7346 Кбит/сек

Видео
Идентификатор                            : 1606 (0x646)
Идентификатор меню                       : 606 (0x25E)
Формат                                   : AVC
Формат/Информация                        : Advanced Video Codec
Профиль формата                          : High@L4.0
Параметр CABAC формата                   : Да
Параметр ReFrames формата                : 3 кадра
Параметр GOP формата                     : M=4, N=32
Идентификатор кодека                     : 27
Продолжительность                        : 1 ч. 44 м.
Битрейт                                  : 6789 Кбит/сек
Ширина                                   : 1920 пикселей
Высота                                   : 1080 пикселей
Соотношение сторон                       : 16:9
Частота кадров                           : 25,000 кадров/сек
Стандарт вещания                         : PAL
Цветовое пространство                    : YUV
Субдискретизация насыщенности            : 4:2:0
Битовая глубина                          : 8 бит
Тип развёртки                            : Чересстрочная
Порядок развёртки                        : Верхнее поле первое
Бит/(Пиксели*Кадры)                      : 0.131
Размер потока                            : 4,95 Гбайт (92%)
Основные цвета                           : BT.709
Характеристики трансфера                 : BT.709
Коэффициенты матрицы                     : BT.709

Аудио
Идентификатор                            : 2606 (0xA2E)
Идентификатор меню                       : 606 (0x25E)
Формат                                   : MPEG Audio
Версия формата                           : Version 1
Профиль формата                          : Layer 2
Идентификатор кодека                     : 4
Продолжительность                        : 1 ч. 44 м.
Вид битрейта                             : Постоянный
Битрейт                                  : 192 Кбит/сек
Каналы                                   : 2 канала
Частота                                  : 48,0 КГц
Метод сжатия                             : С потерями
Задержка видео                           : 64 мс.
Размер потока                            : 143 Мбайт (3%)
Язык                                     : std
Язык, дополнительно                      : Clean effects

Рецензия, отзыв:

Отличный жестокий брутальный вестерн. Очень `пекинповский` по своему духу. Смотрел и вспоминал «Дикую банду» и особенно «Майора Данди».

И пусть образ героя в исполнении «лучшего из худших» Ли Ван Клифа и уступает созданным им образам полковника Мортимера и Ангельских Глазок из шедевров С. Леоне, но тем не менее…

Сюжет вкратце. Где-то возле границы с Мексикой. Время действия — конец 60-х гг. XIX в. Есть река, есть суровый паромщик. Накачанный загорелый молчаливый немолодой мужик. Скулы, усы, трубка, потёртая шляпа. Ли Ван Клиф, короче. Он перевозит с одного берега на другой людей, повозки, курит трубку, не чурается виски и женского общества. Рядом с переправой строится городок. Приезжают новые поселенцы… А потом к городку устремляется крупная банда, уничтожающая всё на своём пути. Это полный сброд, мексиканские и белые бандиты, дезертиры из армий Максимилиана и с американской гражданской. Командуют этими полными отморозками (не оставляющими на своём пути живых свидетелей) мексиканский бандит-революционер в шикарном, украшенном драгметаллом сомбреро и француз, бывший офицер поставленного хуаристами к стенке незадачливого мексиканского императора (и австрийского эрцгерцога). Мексиканец — полнейший отморозок, давно уже на грани безумия. Француз — умён, храбр и отличный тактик. Они везут с собой несколько повозок с оружием и серебром, дабы выкроить для себя в Мексике маленькое такое личное государство. Но чтобы переправиться через глубокую реку им нужен паром. А суровый паромщик никак не хочет расстаться со своей собственностью.

Ну и началось. Образ паромщика, конечно, уступает классическим образам полковника Мортимера и «Плохого» из знаменитой трилогии Серджио Леоне, но тем не менее… Ли Ван Клиф просто великолепен. Молчаливый загорелый человек с неплохими бицепсами, ножом и винтовкой. Настоящий мужик.

Короче говоря, они не прошли.
Скриншоты:


Смотреть Online

http://moonwalk.cc/video/2ce939c9a5af0e50/iframe
Детали торрента:
Название:Паромщик / Barquero (1970) HDTV [H.264/1080i]
Дата добавления:10 Май 2015 20:09:34
Размер:5,36 GB
Раздают:1
Качают:0
Форум:Старые Зарубежные Фильмы (HD)

All rights reserved © 2015-2018