TORRENTS43.COM

Скачать Guzzler - Guzzler (2015) [MP3|320 кб/с]<Hard Rock>


Guzzler - Guzzler (2015)
Год: 2015
Жанр: Hard Rock
Продолжительность: 00:47:46

Кодек: MP3
Битрейт: 320 кб/с
Тип битрейта: CBR

Треклист:
01. The Drinks Are On Me (05:05)
02. Kiss Me, Kill Me (04:02)
03. Jekyll & Hyde (03:27)
04. Step Up (04:06)
05. Pub Crawl (03:08)
06. Orgasm In A (00:49)
07. Rock 'n' Roll (02:59)
08. Head On A Stick (05:54)
09. You're All Insane (03:25)
10. Burning Fire (02:52)
11. Right Hand Man (01:25)
12. Gas, Ass Or Grass (03:45)
13. Wacky (02:36)
14. Bring It On (04:13)

Состав:

Matt Reaby - Guitars
James Davies - Vocals
Haydz Blood - Bass
Steve Blood - Drums

Спектрограмма:



MediaInfo:

Код:

Общее
Полное имя                               : C:\Торрент\Guzzler - Guzzler (2015)\01. The Drinks Are On Me.mp3
Формат                                   : MPEG Audio
Размер файла                             : 11,7 Мбайт
Продолжительность                        : 5 м. 5 с.
Режим общего битрейта                    : Постоянный
Общий поток                              : 320 Кбит/сек
Альбом                                   : Guzzler
Трек                                     : The Drinks Are On Me
Трек/Положение                           : 1
Трек/Всего                               : 14
Исполнитель                              : Guzzler
Дата записи                              : 2015
Библиотека кодирования                   : LAME3.99r
Обложка                                  : Yes
Тип обложки                              : Cover (front)
MIME-тип обложки                         : image/jpg

Аудио
Формат                                   : MPEG Audio
Версия формата                           : Version 1
Профиль формата                          : Layer 3
Режим                                    : Joint stereo
Продолжительность                        : 5 м. 5 с.
Вид битрейта                             : Постоянный
Битрейт                                  : 320 Кбит/сек
Каналы                                   : 2 канала
Частота                                  : 44,1 КГц
Метод сжатия                             : С потерями
Размер потока                            : 11,7 Мбайт (99%)
Библиотека кодирования                   : LAME3.99r
Настройки программы                      : -m j -V 4 -q 3 -lowpass 20.5

Общее
Полное имя                               : C:\Торрент\Guzzler - Guzzler (2015)\02. Kiss Me, Kill Me.mp3
Формат                                   : MPEG Audio
Размер файла                             : 9,32 Мбайт
Продолжительность                        : 4 м. 2 с.
Режим общего битрейта                    : Постоянный
Общий поток                              : 320 Кбит/сек
Альбом                                   : Guzzler
Трек                                     : Kiss Me, Kill Me
Трек/Положение                           : 2
Трек/Всего                               : 14
Исполнитель                              : Guzzler
Дата записи                              : 2015
Библиотека кодирования                   : LAME3.99r
Обложка                                  : Yes
Тип обложки                              : Cover (front)
MIME-тип обложки                         : image/jpg

Аудио
Формат                                   : MPEG Audio
Версия формата                           : Version 1
Профиль формата                          : Layer 3
Режим                                    : Joint stereo
Расширение режима                        : MS Stereo
Продолжительность                        : 4 м. 2 с.
Вид битрейта                             : Постоянный
Битрейт                                  : 320 Кбит/сек
Каналы                                   : 2 канала
Частота                                  : 44,1 КГц
Метод сжатия                             : С потерями
Размер потока                            : 9,24 Мбайт (99%)
Библиотека кодирования                   : LAME3.99r
Настройки программы                      : -m j -V 4 -q 3 -lowpass 20.5

Общее
Полное имя                               : C:\Торрент\Guzzler - Guzzler (2015)\03. Jekyll & Hyde.mp3
Формат                                   : MPEG Audio
Размер файла                             : 7,99 Мбайт
Продолжительность                        : 3 м. 27 с.
Режим общего битрейта                    : Постоянный
Общий поток                              : 320 Кбит/сек
Альбом                                   : Guzzler
Трек                                     : Jekyll & Hyde
Трек/Положение                           : 3
Трек/Всего                               : 14
Исполнитель                              : Guzzler
Дата записи                              : 2015
Библиотека кодирования                   : LAME3.99r
Обложка                                  : Yes
Тип обложки                              : Cover (front)
MIME-тип обложки                         : image/jpg

Аудио
Формат                                   : MPEG Audio
Версия формата                           : Version 1
Профиль формата                          : Layer 3
Режим                                    : Joint stereo
Продолжительность                        : 3 м. 27 с.
Вид битрейта                             : Постоянный
Битрейт                                  : 320 Кбит/сек
Каналы                                   : 2 канала
Частота                                  : 44,1 КГц
Метод сжатия                             : С потерями
Размер потока                            : 7,91 Мбайт (99%)
Библиотека кодирования                   : LAME3.99r
Настройки программы                      : -m j -V 4 -q 3 -lowpass 20.5

Общее
Полное имя                               : C:\Торрент\Guzzler - Guzzler (2015)\04. Step Up.mp3
Формат                                   : MPEG Audio
Размер файла                             : 9,49 Мбайт
Продолжительность                        : 4 м. 6 с.
Режим общего битрейта                    : Постоянный
Общий поток                              : 320 Кбит/сек
Альбом                                   : Guzzler
Трек                                     : Step Up
Трек/Положение                           : 4
Трек/Всего                               : 14
Исполнитель                              : Guzzler
Дата записи                              : 2015
Библиотека кодирования                   : LAME3.99r
Обложка                                  : Yes
Тип обложки                              : Cover (front)
MIME-тип обложки                         : image/jpg

Аудио
Формат                                   : MPEG Audio
Версия формата                           : Version 1
Профиль формата                          : Layer 3
Режим                                    : Joint stereo
Продолжительность                        : 4 м. 7 с.
Вид битрейта                             : Постоянный
Битрейт                                  : 320 Кбит/сек
Каналы                                   : 2 канала
Частота                                  : 44,1 КГц
Метод сжатия                             : С потерями
Размер потока                            : 9,42 Мбайт (99%)
Библиотека кодирования                   : LAME3.99r
Настройки программы                      : -m j -V 4 -q 3 -lowpass 20.5

Общее
Полное имя                               : C:\Торрент\Guzzler - Guzzler (2015)\05. Pub Crawl.mp3
Формат                                   : MPEG Audio
Размер файла                             : 7,27 Мбайт
Продолжительность                        : 3 м. 8 с.
Режим общего битрейта                    : Постоянный
Общий поток                              : 320 Кбит/сек
Альбом                                   : Guzzler
Трек                                     : Pub Crawl
Трек/Положение                           : 5
Трек/Всего                               : 14
Исполнитель                              : Guzzler
Дата записи                              : 2015
Библиотека кодирования                   : LAME3.99r
Обложка                                  : Yes
Тип обложки                              : Cover (front)
MIME-тип обложки                         : image/jpg

Аудио
Формат                                   : MPEG Audio
Версия формата                           : Version 1
Профиль формата                          : Layer 3
Режим                                    : Joint stereo
Продолжительность                        : 3 м. 8 с.
Вид битрейта                             : Постоянный
Битрейт                                  : 320 Кбит/сек
Каналы                                   : 2 канала
Частота                                  : 44,1 КГц
Метод сжатия                             : С потерями
Размер потока                            : 7,20 Мбайт (99%)
Библиотека кодирования                   : LAME3.99r
Настройки программы                      : -m j -V 4 -q 3 -lowpass 20.5

Общее
Полное имя                               : C:\Торрент\Guzzler - Guzzler (2015)\06. Orgasm in A.mp3
Формат                                   : MPEG Audio
Размер файла                             : 1,98 Мбайт
Продолжительность                        : 49 с.
Режим общего битрейта                    : Постоянный
Общий поток                              : 320 Кбит/сек
Альбом                                   : Guzzler
Трек                                     : Orgasm in A
Трек/Положение                           : 6
Трек/Всего                               : 14
Исполнитель                              : Guzzler
Дата записи                              : 2015
Библиотека кодирования                   : LAME3.99r
Обложка                                  : Yes
Тип обложки                              : Cover (front)
MIME-тип обложки                         : image/jpg

Аудио
Формат                                   : MPEG Audio
Версия формата                           : Version 1
Профиль формата                          : Layer 3
Режим                                    : Joint stereo
Продолжительность                        : 49 с.
Вид битрейта                             : Постоянный
Битрейт                                  : 320 Кбит/сек
Каналы                                   : 2 канала
Частота                                  : 44,1 КГц
Метод сжатия                             : С потерями
Размер потока                            : 1,90 Мбайт (96%)
Библиотека кодирования                   : LAME3.99r
Настройки программы                      : -m j -V 4 -q 3 -lowpass 20.5

Общее
Полное имя                               : C:\Торрент\Guzzler - Guzzler (2015)\07. Rock 'n' Roll.mp3
Формат                                   : MPEG Audio
Размер файла                             : 6,93 Мбайт
Продолжительность                        : 2 м. 59 с.
Режим общего битрейта                    : Постоянный
Общий поток                              : 320 Кбит/сек
Альбом                                   : Guzzler
Трек                                     : Rock 'n' Roll
Трек/Положение                           : 7
Трек/Всего                               : 14
Исполнитель                              : Guzzler
Дата записи                              : 2015
Библиотека кодирования                   : LAME3.99r
Обложка                                  : Yes
Тип обложки                              : Cover (front)
MIME-тип обложки                         : image/jpg

Аудио
Формат                                   : MPEG Audio
Версия формата                           : Version 1
Профиль формата                          : Layer 3
Режим                                    : Joint stereo
Продолжительность                        : 2 м. 59 с.
Вид битрейта                             : Постоянный
Битрейт                                  : 320 Кбит/сек
Каналы                                   : 2 канала
Частота                                  : 44,1 КГц
Метод сжатия                             : С потерями
Размер потока                            : 6,85 Мбайт (99%)
Библиотека кодирования                   : LAME3.99r
Настройки программы                      : -m j -V 4 -q 3 -lowpass 20.5

Общее
Полное имя                               : C:\Торрент\Guzzler - Guzzler (2015)\08. Head On a Stick.mp3
Формат                                   : MPEG Audio
Размер файла                             : 13,6 Мбайт
Продолжительность                        : 5 м. 54 с.
Режим общего битрейта                    : Постоянный
Общий поток                              : 320 Кбит/сек
Альбом                                   : Guzzler
Трек                                     : Head On a Stick
Трек/Положение                           : 8
Трек/Всего                               : 14
Исполнитель                              : Guzzler
Дата записи                              : 2015
Библиотека кодирования                   : LAME3.99r
Обложка                                  : Yes
Тип обложки                              : Cover (front)
MIME-тип обложки                         : image/jpg

Аудио
Формат                                   : MPEG Audio
Версия формата                           : Version 1
Профиль формата                          : Layer 3
Режим                                    : Joint stereo
Продолжительность                        : 5 м. 54 с.
Вид битрейта                             : Постоянный
Битрейт                                  : 320 Кбит/сек
Каналы                                   : 2 канала
Частота                                  : 44,1 КГц
Метод сжатия                             : С потерями
Размер потока                            : 13,5 Мбайт (99%)
Библиотека кодирования                   : LAME3.99r
Настройки программы                      : -m j -V 4 -q 3 -lowpass 20.5

Общее
Полное имя                               : C:\Торрент\Guzzler - Guzzler (2015)\09. You're All Insane.mp3
Формат                                   : MPEG Audio
Размер файла                             : 7,92 Мбайт
Продолжительность                        : 3 м. 25 с.
Режим общего битрейта                    : Постоянный
Общий поток                              : 320 Кбит/сек
Альбом                                   : Guzzler
Трек                                     : You're All Insane
Трек/Положение                           : 9
Трек/Всего                               : 14
Исполнитель                              : Guzzler
Дата записи                              : 2015
Библиотека кодирования                   : LAME3.99r
Обложка                                  : Yes
Тип обложки                              : Cover (front)
MIME-тип обложки                         : image/jpg

Аудио
Формат                                   : MPEG Audio
Версия формата                           : Version 1
Профиль формата                          : Layer 3
Режим                                    : Joint stereo
Продолжительность                        : 3 м. 25 с.
Вид битрейта                             : Постоянный
Битрейт                                  : 320 Кбит/сек
Каналы                                   : 2 канала
Частота                                  : 44,1 КГц
Метод сжатия                             : С потерями
Размер потока                            : 7,85 Мбайт (99%)
Библиотека кодирования                   : LAME3.99r
Настройки программы                      : -m j -V 4 -q 3 -lowpass 20.5

Общее
Полное имя                               : C:\Торрент\Guzzler - Guzzler (2015)\10. Burning Fire.mp3
Формат                                   : MPEG Audio
Размер файла                             : 6,64 Мбайт
Продолжительность                        : 2 м. 52 с.
Режим общего битрейта                    : Постоянный
Общий поток                              : 320 Кбит/сек
Альбом                                   : Guzzler
Трек                                     : Burning Fire
Трек/Положение                           : 10
Трек/Всего                               : 14
Исполнитель                              : Guzzler
Дата записи                              : 2015
Библиотека кодирования                   : LAME3.99r
Обложка                                  : Yes
Тип обложки                              : Cover (front)
MIME-тип обложки                         : image/jpg

Аудио
Формат                                   : MPEG Audio
Версия формата                           : Version 1
Профиль формата                          : Layer 3
Режим                                    : Joint stereo
Продолжительность                        : 2 м. 52 с.
Вид битрейта                             : Постоянный
Битрейт                                  : 320 Кбит/сек
Каналы                                   : 2 канала
Частота                                  : 44,1 КГц
Метод сжатия                             : С потерями
Размер потока                            : 6,57 Мбайт (99%)
Библиотека кодирования                   : LAME3.99r
Настройки программы                      : -m j -V 4 -q 3 -lowpass 20.5

Общее
Полное имя                               : C:\Торрент\Guzzler - Guzzler (2015)\11. Right Hand Man.mp3
Формат                                   : MPEG Audio
Размер файла                             : 3,33 Мбайт
Продолжительность                        : 1 м. 25 с.
Режим общего битрейта                    : Постоянный
Общий поток                              : 320 Кбит/сек
Альбом                                   : Guzzler
Трек                                     : Right Hand Man
Трек/Положение                           : 11
Трек/Всего                               : 14
Исполнитель                              : Guzzler
Дата записи                              : 2015
Библиотека кодирования                   : LAME3.99r
Обложка                                  : Yes
Тип обложки                              : Cover (front)
MIME-тип обложки                         : image/jpg

Аудио
Формат                                   : MPEG Audio
Версия формата                           : Version 1
Профиль формата                          : Layer 3
Режим                                    : Joint stereo
Продолжительность                        : 1 м. 25 с.
Вид битрейта                             : Постоянный
Битрейт                                  : 320 Кбит/сек
Каналы                                   : 2 канала
Частота                                  : 44,1 КГц
Метод сжатия                             : С потерями
Размер потока                            : 3,26 Мбайт (98%)
Библиотека кодирования                   : LAME3.99r
Настройки программы                      : -m j -V 4 -q 3 -lowpass 20.5

Общее
Полное имя                               : C:\Торрент\Guzzler - Guzzler (2015)\12. Gas, Ass or Grass.mp3
Формат                                   : MPEG Audio
Размер файла                             : 8,67 Мбайт
Продолжительность                        : 3 м. 45 с.
Режим общего битрейта                    : Постоянный
Общий поток                              : 320 Кбит/сек
Альбом                                   : Guzzler
Трек                                     : Gas, Ass or Grass
Трек/Положение                           : 12
Трек/Всего                               : 14
Исполнитель                              : Guzzler
Дата записи                              : 2015
Библиотека кодирования                   : LAME3.99r
Обложка                                  : Yes
Тип обложки                              : Cover (front)
MIME-тип обложки                         : image/jpg

Аудио
Формат                                   : MPEG Audio
Версия формата                           : Version 1
Профиль формата                          : Layer 3
Режим                                    : Joint stereo
Продолжительность                        : 3 м. 45 с.
Вид битрейта                             : Постоянный
Битрейт                                  : 320 Кбит/сек
Каналы                                   : 2 канала
Частота                                  : 44,1 КГц
Метод сжатия                             : С потерями
Размер потока                            : 8,60 Мбайт (99%)
Библиотека кодирования                   : LAME3.99r
Настройки программы                      : -m j -V 4 -q 3 -lowpass 20.5

Общее
Полное имя                               : C:\Торрент\Guzzler - Guzzler (2015)\13. Wacky.mp3
Формат                                   : MPEG Audio
Размер файла                             : 6,06 Мбайт
Продолжительность                        : 2 м. 36 с.
Режим общего битрейта                    : Постоянный
Общий поток                              : 320 Кбит/сек
Альбом                                   : Guzzler
Трек                                     : Wacky
Трек/Положение                           : 13
Трек/Всего                               : 14
Исполнитель                              : Guzzler
Дата записи                              : 2015
Библиотека кодирования                   : LAME3.99r
Обложка                                  : Yes
Тип обложки                              : Cover (front)
MIME-тип обложки                         : image/jpg

Аудио
Формат                                   : MPEG Audio
Версия формата                           : Version 1
Профиль формата                          : Layer 3
Режим                                    : Joint stereo
Продолжительность                        : 2 м. 37 с.
Вид битрейта                             : Постоянный
Битрейт                                  : 320 Кбит/сек
Каналы                                   : 2 канала
Частота                                  : 44,1 КГц
Метод сжатия                             : С потерями
Размер потока                            : 5,99 Мбайт (99%)
Библиотека кодирования                   : LAME3.99r
Настройки программы                      : -m j -V 4 -q 3 -lowpass 20.5

Общее
Полное имя                               : C:\Торрент\Guzzler - Guzzler (2015)\14. Bring It On.mp3
Формат                                   : MPEG Audio
Размер файла                             : 9,74 Мбайт
Продолжительность                        : 4 м. 13 с.
Режим общего битрейта                    : Постоянный
Общий поток                              : 320 Кбит/сек
Альбом                                   : Guzzler
Трек                                     : Bring It On
Трек/Положение                           : 14
Трек/Всего                               : 14
Исполнитель                              : Guzzler
Дата записи                              : 2015
Библиотека кодирования                   : LAME3.99r
Обложка                                  : Yes
Тип обложки                              : Cover (front)
MIME-тип обложки                         : image/jpg

Аудио
Формат                                   : MPEG Audio
Версия формата                           : Version 1
Профиль формата                          : Layer 3
Режим                                    : Joint stereo
Продолжительность                        : 4 м. 13 с.
Вид битрейта                             : Постоянный
Битрейт                                  : 320 Кбит/сек
Каналы                                   : 2 канала
Частота                                  : 44,1 КГц
Метод сжатия                             : С потерями
Размер потока                            : 9,67 Мбайт (99%)
Библиотека кодирования                   : LAME3.99r
Настройки программы                      : -m j -V 4 -q 3 -lowpass 20.5

Общее
Полное имя                               : C:\Торрент\Guzzler - Guzzler (2015)\cover.jpg
Формат                                   : JPEG
Размер файла                             : 75,8 Кбайт

Изображения
Формат                                   : JPEG
Ширина                                   : 500 пикселей
Высота                                   : 500 пикселей
Цветовое пространство                    : YUV
Субдискретизация насыщенности            : 4:2:0
Битовая глубина                          : 8 бит
Метод сжатия                             : С потерями
Размер потока                            : 75,8 Кбайт (100%)
Детали торрента:
Название:Guzzler - Guzzler (2015) [MP3|320 кб/с]<Hard Rock>
Дата добавления:16 Май 2015 10:14:32
Размер:111 MB
Раздают:
Качают:0
Форум:Hard Rock

All rights reserved © 2015-2018