TORRENTS43.COM

Скачать Keiko Matsui - Live in Tokyo (2002) DVDRip


Keiko Matsui - Live in Tokyo (2002) DVDRip
Год выпуска: 2002
Жанр: Концерт
Описание: "Живое" выступление Кейко Мацуи - это не только исполнение её бессмертных хитов, но её обращения к зрителям на японском языке

Треклист:
01 White Owl
02 Moonlight Sailor
03 Step of Maya
04 Precious Time
05 Kappa
06 Across the Sun
07 The White Gate
08 Doll
09 The Next Plateau
10 Safari
11 Light above the Trees
12 The Wind and the Wolf
13 To the Indian Sea
14 Forever,Forever
Продолжительность: 01:45:20

Видеокодек: DivX 5
Битрейт видео: 700 kbps
Размер кадра:720 x 480
Качество видео: DVDRip
Аудиокодек: MP3 2.0
Битрейт аудио: 192 Kbps

MediaInfo

Код:

      Полное имя                               : K:\UpRG-Концерты\Keiko Matsui-Live in Tokyo 2002.avi
Формат                                   : AVI
Формат/Информация                        : Audio Video Interleave
Размер файла                             : 680 Мбайт
Продолжительность                        : 1 ч. 45 м.
Общий поток                              : 902 Кбит/сек
Библиотека кодирования                   : This file was made by AviUtl 0.98d.

Видео
Идентификатор                            : 0
Формат                                   : MPEG-4 Visual
Параметр BVOP формата                    : 1
Параметр QPel формата                    : Нет
Параметр GMC формата                     : Без точки перехода
Параметр матрицы формата                 : Default (H.263)
Режим смешивания                         : Сжатый битовый поток
Идентификатор кодека                     : DX50
Идентификатор кодека/Подсказка           : DivX 5
Продолжительность                        : 1 ч. 45 м.
Битрейт                                  : 700 Кбит/сек
Ширина                                   : 720 пикселей
Высота                                   : 480 пикселей
Соотношение сторон                       : 3:2
Частота кадров                           : 23,976 кадра/сек
Стандарт вещания                         : NTSC
Цветовое пространство                    : YUV
Субдискретизация насыщенности            : 4:2:0
Битовая глубина                          : 8 бит
Тип развёртки                            : Прогрессивная
Метод сжатия                             : С потерями
Бит/(Пиксели*Кадры)                      : 0.085
Размер потока                            : 528 Мбайт (78%)
Библиотека кодирования                   : DivX 5.0.3 (UTC 2003-01-24)

Аудио
Идентификатор                            : 1
Формат                                   : MPEG Audio
Версия формата                           : Version 1
Профиль формата                          : Layer 3
Режим                                    : Joint stereo
Идентификатор кодека                     : 55
Идентификатор кодека/Подсказка           : MP3
Продолжительность                        : 1 ч. 45 м.
Вид битрейта                             : Постоянный
Битрейт                                  : 192 Кбит/сек
Каналы                                   : 2 канала
Частота                                  : 44,1 КГц
Метод сжатия                             : С потерями
Размер потока                            : 145 Мбайт (21%)
Выравнивание                             : Разделение по промежуткам
Продолжительность промежутка             : 42  мс. (1,00 видеокадр)
Время предзагрузки промежутка            : 41  мс.
Библиотека кодирования                   : Gogo >=3.0           
Скриншоты:


Также на NNM есть: Кейко Мацуи - Дыхание Акендоры / Keiko Matsui - Breath of Akendora (2005) DVDRip
Реставрация sklad600
Детали торрента:
Название:Keiko Matsui - Live in Tokyo (2002) DVDRip
Дата добавления:06 Июл 2008 16:55:38
Размер:680 MB
Раздают:1
Качают:0
Форум:Концерты

All rights reserved © 2015-2018