TORRENTS43.COM

Скачать Rufus & Chaka - Masterjam (1979) Remastered /2012, Geffen Records/ [FLAC|tracks+.cue]<Soul, Funk>


Rufus & Chaka - Masterjam (1979)
Лейбл: Geffen Records
Номер по каталогу: UICY-25348
Страна: US / Japan
Год: 1979 / 2012
Жанр: Soul, Funk
Продолжительность: 00:39:29

Кодек: FLAC
Битрейт: Lossless
Тип рипа: tracks+.cue

Треклист:
01. Do You Love What You Feel (4:29)
02. Any Love (4:52)
03. Heaven Bound (3:47)
04. Walk The Rockway (4:07)
05. Live In Me (3:55)
06. Body Heat (5:59)
07. I'm Dancing For Your Love (4:35)
08. What Am I Missing? (4:07)
09. Masterjam (3:37)

Отчёт ЕАС:

Код:

Exact Audio Copy V1.0 beta 3 from 29. August 2011

EAC extraction logfile from 2. June 2015, 2:03

Rufus & Chaka Khan / Masterjam [SHM-CD]

Used drive  : ATAPI   DVD A  DH16A6L-C   Adapter: 2  ID: 0

Read mode               : Secure
Utilize accurate stream : Yes
Defeat audio cache      : Yes
Make use of C2 pointers : No

Read offset correction                      : 6
Overread into Lead-In and Lead-Out          : No
Fill up missing offset samples with silence : Yes
Delete leading and trailing silent blocks   : No
Null samples used in CRC calculations       : Yes
Used interface                              : Native Win32 interface for Win NT & 2000
Gap handling                                : Appended to previous track

Used output format              : User Defined Encoder
Selected bitrate                : 1024 kBit/s
Quality                         : High
Add ID3 tag                     : No
Command line compressor         : C:\Program Files\FLAC\flac.exe
Additional command line options : -8 -V -T "ARTIST=%artist%" -T "TITLE=%title%" -T "ALBUM=%albumtitle%" -T "DATE=%year%" -T "TRACKNUMBER=%tracknr%" -T "GENRE=%genre%" -T "PERFORMER=%albuminterpret%" -T "COMPOSER=%composer%" %haslyrics%--tag-from-file=LYRICS="%lyricsfile%"%haslyrics% -T "ALBUMARTIST=%albumartist%" -T "DISCNUMBER=%cdnumber%" -T "TOTALDISCS=%totalcds%" -T "TOTALTRACKS=%numtracks%" -T "COMMENT=%comment%" %source% -o %dest%

TOC of the extracted CD

     Track |   Start  |  Length  | Start sector | End sector
    ---------------------------------------------------------
        1  |  0:00.00 |  4:29.37 |         0    |    20211
        2  |  4:29.37 |  4:52.35 |     20212    |    42146
        3  |  9:21.72 |  3:46.73 |     42147    |    59169
        4  | 13:08.70 |  4:07.35 |     59170    |    77729
        5  | 17:16.30 |  3:54.70 |     77730    |    95349
        6  | 21:11.25 |  5:58.55 |     95350    |   122254
        7  | 27:10.05 |  4:34.62 |    122255    |   142866
        8  | 31:44.67 |  4:06.53 |    142867    |   161369
        9  | 35:51.45 |  3:37.07 |    161370    |   177651

Track  1

     Filename F:\MUSIC\0\POSTS\Rufus & Chaka - Masterjam (1979) [2012 Japan LTD SHM-CD]\01 - Do You Love What You Feel.wav

     Pre-gap length  0:00:02.00

     Peak level 99.8 %
     Extraction speed 3.4 X
     Track quality 100.0 %
     Test CRC B1785888
     Copy CRC B1785888
     Cannot be verified as accurate (confidence 2)  [C0DEFB16], AccurateRip returned [329B0541]  (AR v2)
     Copy OK

Track  2

     Filename F:\MUSIC\0\POSTS\Rufus & Chaka - Masterjam (1979) [2012 Japan LTD SHM-CD]\02 - Any Love.wav

     Peak level 99.8 %
     Extraction speed 3.3 X
     Track quality 99.9 %
     Test CRC 87EF6DDB
     Copy CRC 87EF6DDB
     Cannot be verified as accurate (confidence 2)  [C30ED341], AccurateRip returned [F3D4827F]  (AR v2)
     Copy OK

Track  3

     Filename F:\MUSIC\0\POSTS\Rufus & Chaka - Masterjam (1979) [2012 Japan LTD SHM-CD]\03 - Heaven Bound.wav

     Peak level 99.8 %
     Extraction speed 4.1 X
     Track quality 100.0 %
     Test CRC 5A133EFA
     Copy CRC 5A133EFA
     Cannot be verified as accurate (confidence 2)  [71B2FD4E], AccurateRip returned [5A0382F5]  (AR v2)
     Copy OK

Track  4

     Filename F:\MUSIC\0\POSTS\Rufus & Chaka - Masterjam (1979) [2012 Japan LTD SHM-CD]\04 - Walk The Rockway.wav

     Peak level 99.8 %
     Extraction speed 4.5 X
     Track quality 100.0 %
     Test CRC 2697E7F5
     Copy CRC 2697E7F5
     Cannot be verified as accurate (confidence 2)  [F842900A], AccurateRip returned [CCA4B8FE]  (AR v2)
     Copy OK

Track  5

     Filename F:\MUSIC\0\POSTS\Rufus & Chaka - Masterjam (1979) [2012 Japan LTD SHM-CD]\05 - Live In Me.wav

     Pre-gap length  0:00:01.69

     Peak level 99.8 %
     Extraction speed 4.7 X
     Track quality 100.0 %
     Test CRC 0C916459
     Copy CRC 0C916459
     Cannot be verified as accurate (confidence 2)  [067EC6A5], AccurateRip returned [E85CF434]  (AR v2)
     Copy OK

Track  6

     Filename F:\MUSIC\0\POSTS\Rufus & Chaka - Masterjam (1979) [2012 Japan LTD SHM-CD]\06 - Body Heat.wav

     Peak level 99.8 %
     Extraction speed 5.2 X
     Track quality 100.0 %
     Test CRC 27C0ACAE
     Copy CRC 27C0ACAE
     Cannot be verified as accurate (confidence 2)  [332A1E2C], AccurateRip returned [AC5C1609]  (AR v2)
     Copy OK

Track  7

     Filename F:\MUSIC\0\POSTS\Rufus & Chaka - Masterjam (1979) [2012 Japan LTD SHM-CD]\07 - I'm Dancing For Your Love.wav

     Peak level 99.8 %
     Extraction speed 5.4 X
     Track quality 100.0 %
     Test CRC 3CBB928E
     Copy CRC 3CBB928E
     Cannot be verified as accurate (confidence 2)  [A98C2A5B], AccurateRip returned [D4BE9184]  (AR v2)
     Copy OK

Track  8

     Filename F:\MUSIC\0\POSTS\Rufus & Chaka - Masterjam (1979) [2012 Japan LTD SHM-CD]\08 - What Am I Missing.wav

     Peak level 99.8 %
     Extraction speed 5.6 X
     Track quality 100.0 %
     Test CRC 4E3E407E
     Copy CRC 4E3E407E
     Cannot be verified as accurate (confidence 2)  [1BA3C673], AccurateRip returned [4CEB1F87]  (AR v2)
     Copy OK

Track  9

     Filename F:\MUSIC\0\POSTS\Rufus & Chaka - Masterjam (1979) [2012 Japan LTD SHM-CD]\09 - Masterjam.wav

     Peak level 99.8 %
     Extraction speed 5.7 X
     Track quality 100.0 %
     Test CRC BC1BF943
     Copy CRC BC1BF943
     Cannot be verified as accurate (confidence 2)  [B89FF85F], AccurateRip returned [B1C26FEA]  (AR v2)
     Copy OK

No tracks could be verified as accurate
You may have a different pressing from the one(s) in the database

No errors occurred

End of status report

==== Log checksum D93F30730F1C46CCD62CB82A16A1D9AB4C4EA93909B0BEDBE74876F0FE689EF6 ====

Отчёт auCDtect Task manager:

Код:

-----------------------

DON'T MODIFY THIS FILE

-----------------------

PERFORMER: auCDtect Task Manager, ver. 1.6.0 RC1 build 1.6.0.1
Copyright (c) 2008-2010 y-soft. All rights reserved
http://y-soft.org

ANALYZER: auCDtect: CD records authenticity detector, version 0.8.2
Copyright (c) 2004 Oleg Berngardt. All rights reserved.
Copyright (c) 2004 Alexander Djourik. All rights reserved.

FILE: 09 - Masterjam.flac
  Size: 27179167 Hash: A5A641DD054EF53D78511293D18D0A67 Accuracy: -m0
  Conclusion: CDDA 99%
  Signature: FD2FDDA307D41E8EDD61E15774A8F20EE08A23FC
FILE: 08 - What Am I Missing.flac
  Size: 27605669 Hash: C064F9329F88F77247B67E7177B54AD7 Accuracy: -m0
  Conclusion: CDDA 99%
  Signature: D9AF4D01F1C658BE6A87B334AC95C6A77E893D89
FILE: 07 - I'm Dancing For Your Love.flac
  Size: 33633645 Hash: F8A6CBAD684C09D8BC0041CE703E9F43 Accuracy: -m0
  Conclusion: CDDA 100%
  Signature: E976B0D11F5EBE5F8FDD7E86FE7A84422835258F
FILE: 06 - Body Heat.flac
  Size: 44805059 Hash: C9854753A6DAC53A2ADB3CAC9405E7AC Accuracy: -m0
  Conclusion: CDDA 100%
  Signature: A68C102EE8592C1D6729A046D48906D0F4A2AB9A
FILE: 05 - Live In Me.flac
  Size: 28480842 Hash: 151591B2AEBEADD3078B221F07F8E0BE Accuracy: -m0
  Conclusion: CDDA 100%
  Signature: 5D4EFED819A8593A6D102CD0F04D6EAC406349AD
FILE: 04 - Walk The Rockway.flac
  Size: 30419770 Hash: A7FD787AD8B1C329AA7ED59633E99B57 Accuracy: -m0
  Conclusion: CDDA 99%
  Signature: A916E3498623716A4685F7B7D1EDFEC560D3059B
FILE: 03 - Heaven Bound.flac
  Size: 27945938 Hash: 99AF1AA9152962688206A31EB7287C11 Accuracy: -m0
  Conclusion: CDDA 100%
  Signature: 96B45D0C5A145D67FF459EA04F4F0F3EB1009515
FILE: 02 - Any Love.flac
  Size: 36488917 Hash: 123B9E1FD96ABA7ABDCDB6C320511036 Accuracy: -m0
  Conclusion: CDDA 100%
  Signature: 1396A4B2FD900D162ACD4CEEC96E53901B3ECB35
FILE: 01 - Do You Love What You Feel.flac
  Size: 33199097 Hash: B33F7EB21654603AC2F38DEDE25D3C25 Accuracy: -m0
  Conclusion: CDDA 100%
  Signature: 465EBA58D753AB869DDF201941E4A54AFE3859E1

Содержание индексной карты (.CUE)

Код:

REM GENRE Funk
REM DATE 1979
REM DISCID 6A094009
REM COMMENT "ExactAudioCopy v1.0b3"
PERFORMER "Rufus & Chaka"
TITLE "Masterjam"
FILE "01 - Do You Love What You Feel.wav" WAVE
  TRACK 01 AUDIO
    TITLE "Do You Love What You Feel"
    PERFORMER "Rufus & Chaka"
    INDEX 01 00:00:00
FILE "02 - Any Love.wav" WAVE
  TRACK 02 AUDIO
    TITLE "Any Love"
    PERFORMER "Rufus & Chaka"
    INDEX 01 00:00:00
FILE "03 - Heaven Bound.wav" WAVE
  TRACK 03 AUDIO
    TITLE "Heaven Bound"
    PERFORMER "Rufus & Chaka"
    INDEX 01 00:00:00
FILE "04 - Walk The Rockway.wav" WAVE
  TRACK 04 AUDIO
    TITLE "Walk The Rockway"
    PERFORMER "Rufus & Chaka"
    INDEX 01 00:00:00
  TRACK 05 AUDIO
    TITLE "Live In Me"
    PERFORMER "Rufus & Chaka"
    INDEX 00 04:05:41
FILE "05 - Live In Me.wav" WAVE
    INDEX 01 00:00:00
FILE "06 - Body Heat.wav" WAVE
  TRACK 06 AUDIO
    TITLE "Body Heat"
    PERFORMER "Rufus & Chaka"
    INDEX 01 00:00:00
FILE "07 - I'm Dancing For Your Love.wav" WAVE
  TRACK 07 AUDIO
    TITLE "I'm Dancing For Your Love"
    PERFORMER "Rufus & Chaka"
    INDEX 01 00:00:00
FILE "08 - What Am I Missing.wav" WAVE
  TRACK 08 AUDIO
    TITLE "What Am I Missing?"
    PERFORMER "Rufus & Chaka"
    INDEX 01 00:00:00
FILE "09 - Masterjam.wav" WAVE
  TRACK 09 AUDIO
    TITLE "Masterjam"
    PERFORMER "Rufus & Chaka"
    INDEX 01 00:00:00
YouTube YouTube YouTube




Поглощение/вытеснение
Только с согласия релизера

gvm55

Детали торрента:
Название:Rufus & Chaka - Masterjam (1979) Remastered /2012, Geffen Records/ [FLAC|tracks+.cue]<Soul, Funk>
Дата добавления:03 Июн 2015 22:16:52
Размер:442 MB
Раздают:1
Качают:0
Форум:Blues, Soul (Lossless)

All rights reserved © 2015-2018