TORRENTS43.COM

Скачать Воспоминания о будущем / Testament of Youth (2014) BDRip [H.264/1080p]


Воспоминания о будущем / Testament of Youth (2014) BDRip
Производство: Великобритания | BBC Films, Heyday Films
Жанр: Драма, военный, биография, история

Режиссер: Джеймс Кент
Актеры: Алисия Викандер, Кит Харингтон, Эмили Уотсон, Хейли Этвелл, Колин Морган, Доминик Уэст, Миранда Ричардсон, Тэрон Эджертон, Джоэнна Скэнлэн, Рэйчел Редфорд

Описание:
Британская женщина вспоминает о том, как она жила во времена Первой мировой войны. Ее юность, мечты, первую любовь — все это разрушила война.



Дата мировой премьеры: 14 октября 2014
Дата российской премьеры: 28 мая 2015

Продолжительность: 02:09:44
Качество видео: BDRip
Перевод: Дублированный | iTunes
Язык субтитров: Английский
Вид субтитров: Вшитые (отключаемые)

Видео: MPEG-4 AVC/H.264, ~13.3 Mbps, 1920x804
Аудио #1: Русский, AC3, 6 ch, 384 kbps
Аудио #2: Английский, DTS, 6 ch, 768 kbps

MediaInfo:

Общее
Уникальный идентификатор : 232996468310733357594936070868963480919 (0xAF497CCE7A7C852082D23114B550D557)
Полное имя : Vospominaniya.o.buduschem.2014.BDRip.1080p_torrents43.comv
Формат : Matroska
Версия формата : Version 4 / Version 2
Размер файла : 13,3 Гбайт
Продолжительность : 2 ч. 9 м.
Общий поток : 14,7 Мбит/сек
Название фильма : Воспоминания о будущем для torrents43.com
Дата кодирования : UTC 2015-06-12 11:10:39
Программа кодирования : mkvmerge v7.8.0 ('River Man') 64bit built on Mar 27 2015 16:31:37
Библиотека кодирования : libebml v1.3.1 + libmatroska v1.4.2
_STATISTICS_WRITING_APP : mkvmerge v7.8.0 ('River Man') 64bit built on Mar 27 2015 16:31:37
_STATISTICS_WRITING_DATE_UTC : 2015-06-12 11:10:39
_STATISTICS_TAGS : BPS DURATION NUMBER_OF_FRAMES NUMBER_OF_BYTES
DURATION : 01:59:28.703000000
NUMBER_OF_FRAMES : 1056
NUMBER_OF_BYTES : 36869

Видео
Идентификатор : 1
Формат : AVC
Формат/Информация : Advanced Video Codec
Профиль формата : High@L4.1
Параметр CABAC формата : Да
Параметр ReFrames формата : 5 кадров
Идентификатор кодека : V_MPEG4/ISO/AVC
Продолжительность : 2 ч. 9 м.
Битрейт : 13,3 Мбит/сек
Ширина : 1920 пикселей
Высота : 804 пикселя
Соотношение сторон : 2,40:1
Режим частоты кадров : Постоянный
Частота кадров : 23,976 кадра/сек
Цветовое пространство : YUV
Субдискретизация насыщенности : 4:2:0
Битовая глубина : 8 бит
Тип развёртки : Прогрессивная
Бит/(Пиксели*Кадры) : 0.359
Размер потока : 12,0 Гбайт (90%)
Заголовок : Воспоминания о будущем
Библиотека кодирования : x264 core 144 r0+2574 9abcd72 t_mod_Custom [8-bit@all X86_64]
Настройки программы : cabac=1 / ref=5 / deblock=1:-3:-3 / analyse=0x3:0x133 / me=umh / subme=10 / psy=1 / fade_compensate=0.00 / psy_rd=0.90:0.00 / mixed_ref=1 / me_range=48 / chroma_me=1 / trellis=2 / 8x8dct=1 / cqm=0 / deadzone=21,11 / fast_pskip=1 / chroma_qp_offset=-2 / threads=8 / lookahead_threads=1 / sliced_threads=0 / nr=0 / decimate=1 / interlaced=0 / bluray_compat=0 / constrained_intra=0 / fgo=0 / bframes=9 / b_pyramid=2 / b_adapt=2 / b_bias=0 / direct=3 / weightb=1 / open_gop=0 / weightp=2 / keyint=250 / keyint_min=23 / scenecut=40 / intra_refresh=0 / rc_lookahead=150 / rc=crf / mbtree=0 / crf=16.5000 / qcomp=0.65 / qpmin=0:0:0 / qpmax=69:69:69 / qpstep=4 / vbv_maxrate=50000 / vbv_bufsize=62500 / crf_max=0.0 / nal_hrd=none / filler=0 / ip_ratio=1.30 / pb_ratio=1.30 / aq=4:0.75 / aq-sensitivity=10.00 / aq-factor=1.00:1.00:1.00 / aq2=0 / aq3=0
Язык : English
Default : Да
Forced : Нет
_STATISTICS_WRITING_APP : mkvmerge v7.8.0 ('River Man') 64bit built on Mar 27 2015 16:31:37
_STATISTICS_WRITING_DATE_UTC : 2015-06-12 11:10:39
_STATISTICS_TAGS : BPS DURATION NUMBER_OF_FRAMES NUMBER_OF_BYTES
DURATION : 02:09:44.027000000
NUMBER_OF_FRAMES : 186630
NUMBER_OF_BYTES : 13202398418

Аудио #1
Идентификатор : 2
Формат : AC-3
Формат/Информация : Audio Coding 3
Расширение режима : CM (complete main)
Параметр Endianness формата : Big
Идентификатор кодека : A_AC3
Продолжительность : 2 ч. 9 м.
Вид битрейта : Постоянный
Битрейт : 384 Кбит/сек
Каналы : 6 каналов
Расположение каналов : Front: L C R, Side: L R, LFE
Частота : 48,0 КГц
Битовая глубина : 16 бит
Метод сжатия : С потерями
Размер потока : 356 Мбайт (3%)
Заголовок : Русский (ITunes)
Язык : Russian
Default : Да
Forced : Нет

Аудио #2
Идентификатор : 3
Формат : DTS
Формат/Информация : Digital Theater Systems
Режим : 16
Параметр Endianness формата : Big
Идентификатор кодека : A_DTS
Продолжительность : 2 ч. 9 м.
Вид битрейта : Постоянный
Битрейт : 768 Кбит/сек
Каналы : 6 каналов
Расположение каналов : Front: L C R, Side: L R, LFE
Частота : 48,0 КГц
Битовая глубина : 24 бит
Метод сжатия : С потерями
Размер потока : 713 Мбайт (5%)
Заголовок : Английский
Язык : English
Default : Нет
Forced : Нет

Текст
Идентификатор : 4
Формат : UTF-8
Идентификатор кодека : S_TEXT/UTF8
Идентификатор кодека/Информация : UTF-8 Plain Text
Язык : English
Default : Нет
Forced : Нет

Меню
00:00:00.000 : en:00:00:00.000
00:10:38.763 : en:00:10:38.763
00:20:37.695 : en:00:20:37.695
00:30:48.263 : en:00:30:48.263
00:39:06.344 : en:00:39:06.344
00:50:45.751 : en:00:50:45.751
01:00:15.529 : en:01:00:15.529
01:09:32.460 : en:01:09:32.460
01:19:41.026 : en:01:19:41.026
01:31:14.010 : en:01:31:14.010
01:39:57.116 : en:01:39:57.116
01:51:01.071 : en:01:51:01.071
Скриншоты:

Дополнительные скриншоты:









Смотреть Online

http://moonwalk.cc/video/7ae81e2d4b163c20/iframe
Детали торрента:
Название:Воспоминания о будущем / Testament of Youth (2014) BDRip [H.264/1080p]
Дата добавления:12 Июн 2015 14:28:55
Размер:13,3 GB
Раздают:7
Качают:0
Форум:Зарубежные Фильмы (HD, UHD-LQ)

All rights reserved © 2015-2018