TORRENTS43.COM

Скачать Thy Art Is Murder - 4 Альбома + 2 EP (2008-2017) [FLAC|tracks|Lossless]<Technical Deathcore, Death Metal>


Thy Art Is Murder - 4 Альбома + 2 EP (2008-2017)

Год: 2008-2017
Жанр: Technical Deathcore, Death Metal
Страна исполнителя (группы): Sydney / Australia
Источник (релизер): jiqwenn / 7digital / Sphinx414
Продолжительность: 03:20:35
Кодек: FLAC
Тип рипа: tracks
Метод сжатия: Lossless

2008 - Infinite Death (EP)


Источник релиза: jiqwenn / what.cd
Продолжительнoсть: 00:17:56

Трeклист:
[03:35] 01. I'll Show You God
[03:20] 02. Whore To A Chainsaw
[03:50] 03. Parasitic Autopsy
[03:17] 04. Breeding Bacteria
[03:52] 05. Infinite Death

Отчёт ЕАС:

Код: выделить все

Exact Audio Copy V0.99 prebeta 5 from 4. May 2009

EAC extraction logfile from 6. October 2009, 16:16

Thy Art Is Murder / Infinite Death

Used drive  : ASUS    DRW-20B1LT   Adapter: 1  ID: 0

Read mode               : Secure
Utilize accurate stream : Yes
Defeat audio cache      : No
Make use of C2 pointers : No

Read offset correction                      : 6
Overread into Lead-In and Lead-Out          : No
Fill up missing offset samples with silence : Yes
Delete leading and trailing silent blocks   : No
Null samples used in CRC calculations       : Yes
Used interface                              : Native Win32 interface for Win NT & 2000
Gap handling                                : Appended to previous track

Used output format              : User Defined Encoder
Selected bitrate                : 768 kBit/s
Quality                         : High
Add ID3 tag                     : No
Command line compressor         : C:\Program Files (x86)\Exact Audio Copy\FLAC\FLAC.EXE
Additional command line options : -V -8 -T "artist=%a" -T "title=%t" -T "album=%g" -T "date=%y" -T "tracknumber=%n" -T "genre=%m" %s

TOC of the extracted CD

     Track |   Start  |  Length  | Start sector | End sector
    ---------------------------------------------------------
        1  |  0:00.00 |  3:35.57 |         0    |    16181
        2  |  3:35.57 |  3:20.56 |     16182    |    31237
        3  |  6:56.38 |  3:50.29 |     31238    |    48516
        4  | 10:46.67 |  3:17.09 |     48517    |    63300
        5  | 14:04.01 |  3:52.42 |     63301    |    80742

Track  1

     Filename C:\Users\Ownwe\Downloads\what.CD\Thy Art Is Murder - 2008 - Infinite Death\01 - I'll Show You God.wav

     Pre-gap length  0:00:02.00

     Peak level 100.0 %
     Track quality 100.0 %
     Test CRC CA2D1901
     Copy CRC CA2D1901
     Accurately ripped (confidence 1)  [3835BB8F]
     Copy OK

Track  2

     Filename C:\Users\Ownwe\Downloads\what.CD\Thy Art Is Murder - 2008 - Infinite Death\02 - Whore To A Chainsaw.wav

     Pre-gap length  0:00:00.12

     Peak level 100.0 %
     Track quality 100.0 %
     Test CRC 11A1D094
     Copy CRC 11A1D094
     Accurately ripped (confidence 1)  [DBD1D3CF]
     Copy OK

Track  3

     Filename C:\Users\Ownwe\Downloads\what.CD\Thy Art Is Murder - 2008 - Infinite Death\03 - Parasitic Autopsy.wav

     Pre-gap length  0:00:00.01

     Peak level 100.0 %
     Track quality 100.0 %
     Test CRC 9ABE6D5A
     Copy CRC 9ABE6D5A
     Accurately ripped (confidence 1)  [EAD23AD9]
     Copy OK

Track  4

     Filename C:\Users\Ownwe\Downloads\what.CD\Thy Art Is Murder - 2008 - Infinite Death\04 - Breeding Bacteria.wav

     Pre-gap length  0:00:00.01

     Peak level 100.0 %
     Track quality 100.0 %
     Test CRC 5B7FB68F
     Copy CRC 5B7FB68F
     Accurately ripped (confidence 1)  [51E09054]
     Copy OK

Track  5

     Filename C:\Users\Ownwe\Downloads\what.CD\Thy Art Is Murder - 2008 - Infinite Death\05 - Infinite Death.wav

     Pre-gap length  0:00:00.01

     Peak level 100.0 %
     Track quality 100.0 %
     Test CRC 88043C9E
     Copy CRC 88043C9E
     Accurately ripped (confidence 1)  [D9F5EF0A]
     Copy OK

All tracks accurately ripped

No errors occurred

End of status report

Отчёт auCDtect Task Manager:

Код: выделить все
-----------------------

DON'T MODIFY THIS FILE

-----------------------

PERFORMER: auCDtect Task Manager, ver. 1.6.0 RC1 build 1.6.0.1
Copyright (c) 2008-2010 y-soft. All rights reserved
http://y-soft.org

ANALYZER: auCDtect: CD records authenticity detector, version 0.8.2
Copyright (c) 2004 Oleg Berngardt. All rights reserved.
Copyright (c) 2004 Alexander Djourik. All rights reserved.

FILE: 05 - Infinite Death.flac
  Size: 31553482 Hash: 4555085589173E4CE120509FEFF0E753 Accuracy: -m0
  Conclusion: CDDA 100%
  Signature: D690309FC51E9F6A455F94425CBDAC0E11FD22A8
FILE: 04 - Breeding Bacteria.flac
  Size: 27344702 Hash: A9BEF51623675836CF739DC3601BAFBB Accuracy: -m0
  Conclusion: CDDA 100%
  Signature: 68900B0F6244EA24AE8CC7811758EF82C5AE8B06
FILE: 03 - Parasitic Autopsy.flac
  Size: 31115108 Hash: 3378DCF6C7AC72C8BF49CFD4AF309E9A Accuracy: -m0
  Conclusion: CDDA 100%
  Signature: F289B0C760E5D0058F70596BE101776A898A0FFA
FILE: 02 - Whore To A Chainsaw.flac
  Size: 27226928 Hash: 13FB525C93F2A4955D48999204783B3D Accuracy: -m0
  Conclusion: CDDA 100%
  Signature: 561F5D1F6FE6738E9285F3797A82FA0E128F4722
FILE: 01 - I'll Show You God.flac
  Size: 28773397 Hash: BB1F611FD87F87CE7144B564EA0D8752 Accuracy: -m0
  Conclusion: CDDA 100%
  Signature: A8C2A3BB04CC2D03678425713F9C89D1DAADC030

2010 - The Adversary


Источник релиза: jiqwenn / what.cd
Продолжительнoсть: 00:37:34

Трeклист:
[00:50] 01. Unholy Sermons
[03:26] 02. Soldiers Of Immortality
[04:25] 03. Laceration Penetration
[03:22] 04. Furnace Of Hate
[03:21] 05. Flesh Oracle
[04:06] 06. The Adversary
[03:51] 07. Decrepit Purification
[03:30] 08. The False Prophet
[03:32] 09. Engineering The Anti-Christ
[02:20] 10. Requiem
[04:45] 11. Coward's Throne

Отчёт ЕАС:

Код: выделить все

Exact Audio Copy V0.99 prebeta 5 from 4. May 2009

EAC extraction logfile from 11. November 2010, 19:07

Thy Art Is Murder / The Adversary

Used drive  : PLDS    DVD+-RW DH-16AAS   Adapter: 1  ID: 0

Read mode               : Secure
Utilize accurate stream : Yes
Defeat audio cache      : Yes
Make use of C2 pointers : No

Read offset correction                      : 6
Overread into Lead-In and Lead-Out          : No
Fill up missing offset samples with silence : Yes
Delete leading and trailing silent blocks   : No
Null samples used in CRC calculations       : No
Used interface                              : Native Win32 interface for Win NT & 2000
Gap handling                                : Appended to previous track

Used output format              : User Defined Encoder
Selected bitrate                : 128 kBit/s
Quality                         : High
Add ID3 tag                     : Yes
Command line compressor         : C:\Program Files (x86)\FLAC\flac.exe
Additional command line options : -V -8 -T "artist=%a" -T "title=%t" -T "album=%g" -T "date=%y" -T "tracknumber=%n" -T "genre=%m" %s

TOC of the extracted CD

     Track |   Start  |  Length  | Start sector | End sector
    ---------------------------------------------------------
        1  |  0:01.00 |  0:50.42 |        75    |     3866
        2  |  0:51.42 |  3:26.64 |      3867    |    19380
        3  |  4:18.31 |  4:25.48 |     19381    |    39303
        4  |  8:44.04 |  3:22.37 |     39304    |    54490
        5  | 12:06.41 |  3:21.45 |     54491    |    69610
        6  | 15:28.11 |  4:06.69 |     69611    |    88129
        7  | 19:35.05 |  3:51.47 |     88130    |   105501
        8  | 23:26.52 |  3:30.07 |    105502    |   121258
        9  | 26:56.59 |  3:32.54 |    121259    |   137212
       10  | 30:29.38 |  2:20.66 |    137213    |   147778
       11  | 32:50.29 |  4:45.39 |    147779    |   169192

Track  1

     Filename J:\Music\Thy Art Is Murder - The Adversary - 2010\01 - Unholy Sermons.wav

     Pre-gap length  0:00:03.00

     Peak level 88.9 %
     Track quality 100.0 %
     Test CRC 8760614E
     Copy CRC 8760614E
     Track not present in AccurateRip database
     Copy OK

Track  2

     Filename J:\Music\Thy Art Is Murder - The Adversary - 2010\02 - Soldiers Of Immortality.wav

     Peak level 100.0 %
     Track quality 99.9 %
     Test CRC 261DCBA4
     Copy CRC 261DCBA4
     Track not present in AccurateRip database
     Copy OK

Track  3

     Filename J:\Music\Thy Art Is Murder - The Adversary - 2010\03 - Laceration Penetration.wav

     Peak level 99.7 %
     Track quality 99.9 %
     Test CRC E041274B
     Copy CRC E041274B
     Track not present in AccurateRip database
     Copy OK

Track  4

     Filename J:\Music\Thy Art Is Murder - The Adversary - 2010\04 - Furnace Of Hate.wav

     Peak level 100.0 %
     Track quality 100.0 %
     Test CRC 41293DBA
     Copy CRC 41293DBA
     Track not present in AccurateRip database
     Copy OK

Track  5

     Filename J:\Music\Thy Art Is Murder - The Adversary - 2010\05 - Flesh Oracle.wav

     Peak level 99.7 %
     Track quality 100.0 %
     Test CRC A0064480
     Copy CRC A0064480
     Track not present in AccurateRip database
     Copy OK

Track  6

     Filename J:\Music\Thy Art Is Murder - The Adversary - 2010\06 - The Adversary.wav

     Peak level 99.7 %
     Track quality 100.0 %
     Test CRC 26074898
     Copy CRC 26074898
     Track not present in AccurateRip database
     Copy OK

Track  7

     Filename J:\Music\Thy Art Is Murder - The Adversary - 2010\07 - Decrepit Purification.wav

     Peak level 100.0 %
     Track quality 100.0 %
     Test CRC 3DA60D54
     Copy CRC 3DA60D54
     Track not present in AccurateRip database
     Copy OK

Track  8

     Filename J:\Music\Thy Art Is Murder - The Adversary - 2010\08 - The False Prophet.wav

     Peak level 100.0 %
     Track quality 100.0 %
     Test CRC 1AA07C3E
     Copy CRC 1AA07C3E
     Track not present in AccurateRip database
     Copy OK

Track  9

     Filename J:\Music\Thy Art Is Murder - The Adversary - 2010\09 - Engineering The Anti-Christ.wav

     Peak level 100.0 %
     Track quality 100.0 %
     Test CRC 5679718C
     Copy CRC 5679718C
     Track not present in AccurateRip database
     Copy OK

Track 10

     Filename J:\Music\Thy Art Is Murder - The Adversary - 2010\10 - Requiem.wav

     Pre-gap length  0:00:00.06

     Peak level 99.7 %
     Track quality 100.0 %
     Test CRC 97F9EFF6
     Copy CRC 97F9EFF6
     Track not present in AccurateRip database
     Copy OK

Track 11

     Filename J:\Music\Thy Art Is Murder - The Adversary - 2010\11 - Coward's Throne.wav

     Peak level 100.0 %
     Track quality 100.0 %
     Test CRC 6EE289AE
     Copy CRC 6EE289AE
     Track not present in AccurateRip database
     Copy OK

None of the tracks are present in the AccurateRip database

No errors occurred

End of status report

Отчёт auCDtect Task Manager:

Код: выделить все
-----------------------

DON'T MODIFY THIS FILE

-----------------------

PERFORMER: auCDtect Task Manager, ver. 1.6.0 RC1 build 1.6.0.1
Copyright (c) 2008-2010 y-soft. All rights reserved
http://y-soft.org

ANALYZER: auCDtect: CD records authenticity detector, version 0.8.2
Copyright (c) 2004 Oleg Berngardt. All rights reserved.
Copyright (c) 2004 Alexander Djourik. All rights reserved.

FILE: 11 - Coward's Throne.flac
  Size: 38780252 Hash: 81E1A55B728BF190DD9D3BA031C2558A Accuracy: -m0
  Conclusion: CDDA 100%
  Signature: 07DD95FA30056FB0F2A0A70DC1BB5EBA62CF9691
FILE: 10 - Requiem.flac
  Size: 18373335 Hash: 4AA749F6E9965119534C8FD740C6F935 Accuracy: -m0
  Conclusion: CDDA 100%
  Signature: D58C8A3BB7F171029556693F94A99A22644A895F
FILE: 09 - Engineering The Anti-Christ.flac
  Size: 29591403 Hash: A4B2EDFF78DA0AF73032E9F0A8322A5F Accuracy: -m0
  Conclusion: CDDA 100%
  Signature: 55A1BD548EC1ECE9FA9CA9AC5B64B2C6821B1C89
FILE: 08 - The False Prophet.flac
  Size: 29177154 Hash: 5CC304B992E693C8903F5F125B6A07C1 Accuracy: -m0
  Conclusion: CDDA 100%
  Signature: B710482EF3E0CB9755BE88E4B6920EA94E636E30
FILE: 07 - Decrepit Purification.flac
  Size: 31798652 Hash: 3DA516388846DF693B6E8A9E4966A249 Accuracy: -m0
  Conclusion: CDDA 100%
  Signature: B9DD6F6542F4F5FA35E7B1BA2942E186E15ED762
FILE: 06 - The Adversary.flac
  Size: 33480308 Hash: 8027520E313BDC4E4EA16D75C815BD71 Accuracy: -m0
  Conclusion: CDDA 100%
  Signature: 043B627886DC65B6EEE9CF53E5E37D4A69F0B3F5
FILE: 05 - Flesh Oracle.flac
  Size: 27511467 Hash: 1465647714A0D32C48ACD14DA50A74C0 Accuracy: -m0
  Conclusion: CDDA 100%
  Signature: 24896E01DBE9DE6A48EA3EC14AEAA637B99DC0DF
FILE: 04 - Furnace Of Hate.flac
  Size: 27933018 Hash: B8D0D72C1C256C9D5C276EF3C55FD06E Accuracy: -m0
  Conclusion: CDDA 100%
  Signature: A5C1CA7D08232E3FF7DF2FB721F11E512FE958CB
FILE: 03 - Laceration Penetration.flac
  Size: 36252351 Hash: A73967409897C529A2650FC34135EAC1 Accuracy: -m0
  Conclusion: CDDA 100%
  Signature: EA0F548082BEF67A21C4CD06A0F1B4EC01B85E4B
FILE: 02 - Soldiers Of Immortality.flac
  Size: 27582293 Hash: 6E8DADBA0E1A0591ED48DAF3AE07C6D5 Accuracy: -m0
  Conclusion: CDDA 100%
  Signature: C46EFAD525FB7A5E22D2AFB249FB81BEB3744D58
FILE: 01 - Unholy Sermons.flac
  Size: 4947662 Hash: 305A14283EF33B83DE0D6F9EC6B2E90D Accuracy: -m0
  Conclusion: CDDA 100%
  Signature: D699C339F574BC9531EEDD6F2B48433DFB009E56

2012 - Hate


Источник релиза: jiqwenn / what.cd
Продолжительнoсть: 00:36:57

Трeклист:
[03:35] 01. Reign Of Darkness
[03:25] 02. The Purest Strain Of Hate
[03:32] 03. Vile Creations
[03:52] 04. Shadow Of Eternal Sin
[03:21] 05. Immolation
[04:31] 06. Infinite Forms
[03:40] 07. Dead Sun (feat. Nico Bronson from 'War From A Harlots Mouth')
[02:54] 08. Gates Of Misery
[03:39] 09. Defective Breed
[04:24] 10. Doomed From Birth (feat. Joel Birch from 'The Amity Affliction')

Отчёт ЕАС:

Код: выделить все

Exact Audio Copy V1.0 beta 3 from 29. August 2011

EAC extraction logfile from 18. December 2012, 19:01

Thy Art Is Murder / Hate

Used drive  : TSSTcorpCDDVDW SH-224BB   Adapter: 1  ID: 0

Read mode               : Secure
Utilize accurate stream : Yes
Defeat audio cache      : Yes
Make use of C2 pointers : No

Read offset correction                      : 6
Overread into Lead-In and Lead-Out          : No
Fill up missing offset samples with silence : Yes
Delete leading and trailing silent blocks   : No
Null samples used in CRC calculations       : Yes
Used interface                              : Native Win32 interface for Win NT & 2000
Gap handling                                : Appended to previous track

Used output format              : User Defined Encoder
Selected bitrate                : 768 kBit/s
Quality                         : High
Add ID3 tag                     : No
Command line compressor         : C:\Program Files (x86)\Exact Audio Copy\FLAC\FLAC.EXE
Additional command line options : -6 -V -T "ARTIST=%artist%" -T "TITLE=%title%" -T "ALBUM=%albumtitle%" -T "DATE=%year%" -T "TRACKNUMBER=%tracknr%" -T "GENRE=%genre%" -T "COMMENT=%comment%" -T "BAND=%albuminterpret%" -T "ALBUMARTIST=%albuminterpret%" -T "COMPOSER=%composer%" %haslyrics%--tag-from-file=LYRICS="%lyricsfile%"%haslyrics% -T "DISCNUMBER=%cdnumber%" -T "TOTALDISCS=%totalcds%" -T "TOTALTRACKS=%numtracks%" %hascover%--picture="%coverfile%"%hascover% %source% -o %dest%

TOC of the extracted CD

     Track |   Start  |  Length  | Start sector | End sector
    ---------------------------------------------------------
        1  |  0:00.00 |  3:35.17 |         0    |    16141
        2  |  3:35.17 |  3:25.08 |     16142    |    31524
        3  |  7:00.25 |  3:32.16 |     31525    |    47440
        4  | 10:32.41 |  3:52.21 |     47441    |    64861
        5  | 14:24.62 |  3:21.48 |     64862    |    79984
        6  | 17:46.35 |  4:31.62 |     79985    |   100371
        7  | 22:18.22 |  3:40.23 |    100372    |   116894
        8  | 25:58.45 |  2:54.56 |    116895    |   130000
        9  | 28:53.26 |  3:39.61 |    130001    |   146486
       10  | 32:33.12 |  4:24.29 |    146487    |   166315

Track  1

     Filename D:\Music\Thy Art Is Murder - Hate (2012) [FLAC]\01 - Reign Of Darkness.wav

     Pre-gap length  0:00:02.00

     Peak level 100.0 %
     Extraction speed 1.9 X
     Track quality 100.0 %
     Test CRC F880B8F7
     Copy CRC F880B8F7
     Track not present in AccurateRip database
     Copy OK

Track  2

     Filename D:\Music\Thy Art Is Murder - Hate (2012) [FLAC]\02 - The Purest Strain Of Hate.wav

     Peak level 100.0 %
     Extraction speed 2.0 X
     Track quality 100.0 %
     Test CRC 2259D100
     Copy CRC 2259D100
     Track not present in AccurateRip database
     Copy OK

Track  3

     Filename D:\Music\Thy Art Is Murder - Hate (2012) [FLAC]\03 - Vile Creations.wav

     Pre-gap length  0:00:00.70

     Peak level 100.0 %
     Extraction speed 2.2 X
     Track quality 100.0 %
     Test CRC 30511538
     Copy CRC 30511538
     Track not present in AccurateRip database
     Copy OK

Track  4

     Filename D:\Music\Thy Art Is Murder - Hate (2012) [FLAC]\04 - Shadow Of Eternal Sin.wav

     Pre-gap length  0:00:00.05

     Peak level 100.0 %
     Extraction speed 2.4 X
     Track quality 100.0 %
     Test CRC DFE141F9
     Copy CRC DFE141F9
     Track not present in AccurateRip database
     Copy OK

Track  5

     Filename D:\Music\Thy Art Is Murder - Hate (2012) [FLAC]\05 - Immolation.wav

     Pre-gap length  0:00:00.89

     Peak level 100.0 %
     Extraction speed 2.4 X
     Track quality 100.0 %
     Test CRC E0283E4B
     Copy CRC E0283E4B
     Track not present in AccurateRip database
     Copy OK

Track  6

     Filename D:\Music\Thy Art Is Murder - Hate (2012) [FLAC]\06 - Infinite Forms.wav

     Pre-gap length  0:00:00.25

     Peak level 100.0 %
     Extraction speed 2.7 X
     Track quality 100.0 %
     Test CRC 40843286
     Copy CRC 40843286
     Track not present in AccurateRip database
     Copy OK

Track  7

     Filename D:\Music\Thy Art Is Murder - Hate (2012) [FLAC]\07 - Dead Sun (Featuring Nico Bronson from 'War From A Harlots Mouth').wav

     Pre-gap length  0:00:00.41

     Peak level 100.0 %
     Extraction speed 2.8 X
     Track quality 100.0 %
     Test CRC 4EFD155D
     Copy CRC 4EFD155D
     Track not present in AccurateRip database
     Copy OK

Track  8

     Filename D:\Music\Thy Art Is Murder - Hate (2012) [FLAC]\08 - Gates Of Misery.wav

     Peak level 100.0 %
     Extraction speed 2.7 X
     Track quality 100.0 %
     Test CRC 7FDA1A45
     Copy CRC 7FDA1A45
     Track not present in AccurateRip database
     Copy OK

Track  9

     Filename D:\Music\Thy Art Is Murder - Hate (2012) [FLAC]\09 - Defective Breed.wav

     Pre-gap length  0:00:00.37

     Peak level 100.0 %
     Extraction speed 3.0 X
     Track quality 100.0 %
     Test CRC 6BEA6267
     Copy CRC 6BEA6267
     Track not present in AccurateRip database
     Copy OK

Track 10

     Filename D:\Music\Thy Art Is Murder - Hate (2012) [FLAC]\10 - Doomed From Birth (Featuring Joel Birch from 'The Amity Affliction').wav

     Pre-gap length  0:00:00.02

     Peak level 100.0 %
     Extraction speed 3.2 X
     Track quality 100.0 %
     Test CRC CAE6FC3A
     Copy CRC CAE6FC3A
     Track not present in AccurateRip database
     Copy OK

None of the tracks are present in the AccurateRip database

No errors occurred

End of status report

Отчёт auCDtect Task Manager:

Код: выделить все
-----------------------

DON'T MODIFY THIS FILE

-----------------------

PERFORMER: auCDtect Task Manager, ver. 1.6.0 RC1 build 1.6.0.1
Copyright (c) 2008-2010 y-soft. All rights reserved
http://y-soft.org

ANALYZER: auCDtect: CD records authenticity detector, version 0.8.2
Copyright (c) 2004 Oleg Berngardt. All rights reserved.
Copyright (c) 2004 Alexander Djourik. All rights reserved.

FILE: 10 - Doomed From Birth (Featuring Joel Birch from 'The Amity Affliction').flac
  Size: 32653585 Hash: 33DC2BE9376C9C2E1A51C38AA38D48F4 Accuracy: -m0
  Conclusion: CDDA 99%
  Signature: 46AC48C82DC5F7528909E3BB1170427938EA8F37
FILE: 09 - Defective Breed.flac
  Size: 29252123 Hash: 80DF7632053CC2025BFCAE4E9ACEF9E4 Accuracy: -m0
  Conclusion: CDDA 100%
  Signature: EE7A4B577E23D46D6CCB929A1D0CDAA1D91A9118
FILE: 08 - Gates Of Misery.flac
  Size: 23258061 Hash: 8A22758613F35626C1A79401915B229E Accuracy: -m0
  Conclusion: CDDA 100%
  Signature: 91724670812A81F286785401B8ACF73A2F8A04D0
FILE: 07 - Dead Sun (Featuring Nico Bronson from 'War From A Harlots Mouth').flac
  Size: 28234878 Hash: 98E7E9E95EBCB3FB5E4368008474B474 Accuracy: -m0
  Conclusion: CDDA 100%
  Signature: 88FDEFF92E6B0618EF30B53B27006AF773BE947C
FILE: 06 - Infinite Forms.flac
  Size: 34540902 Hash: B6542853D0DCDCA9423BD6EA69A5280F Accuracy: -m0
  Conclusion: CDDA 100%
  Signature: FB44A81949839BD3E212C4DC788F25D3CE025D10
FILE: 05 - Immolation.flac
  Size: 26742182 Hash: 49F72DCBBB6B437C6CCC34E8F1F997AB Accuracy: -m0
  Conclusion: CDDA 100%
  Signature: 677764445FC7A3B276769403CBACFA37AD686110
FILE: 04 - Shadow Of Eternal Sin.flac
  Size: 30308883 Hash: 6F3F055F6EC4E0DDCB4C8A693D2D1B62 Accuracy: -m0
  Conclusion: CDDA 99%
  Signature: 6A0A5EDFA848AADB5C7F2F4726DC7B22E6E2932A
FILE: 03 - Vile Creations.flac
  Size: 27829345 Hash: C8ECF4E628DFF6055B96093A35883227 Accuracy: -m0
  Conclusion: CDDA 100%
  Signature: 2E033CC8DB2ECE87AB4196D00925EE2294923BD5
FILE: 02 - The Purest Strain Of Hate.flac
  Size: 27282670 Hash: 852044D1E4798C94F9EBAD3133EF140A Accuracy: -m0
  Conclusion: CDDA 100%
  Signature: C25FA8DB38FA15DD36194731FFAA594BC774F2EB
FILE: 01 - Reign Of Darkness.flac
  Size: 26384265 Hash: 287E563D7AA8788F44F0563C42443F2C Accuracy: -m0
  Conclusion: CDDA 100%
  Signature: 374006B250F008EB6F2073989DDF2B80F7C6C747

2015 - Holy War (Special Edition)


Источник релиза: Sphinx414
Продолжительнoсть: 00:41:07

Трeклист:
[04:25] 01. Absolute Genocide
[03:55] 02. Light Bearer
[04:00] 03. Holy War
[02:55] 04. Coffin Dragger (feat. Winston McCall from 'Parkway Drive')
[04:16] 05. Fur And Claw
[03:06] 06. Deliver Us To Evil
[04:03] 07. Emptiness
[02:55] 08. Violent Reckoning
[03:33] 09. Child Of Sorrow
[05:30] 10. Naked And Cold
[02:23] 11. Vengeance (Bonus Track)

Отчёт ЕАС:

Код: выделить все

Exact Audio Copy V1.1 from 23. June 2015

EAC extraction logfile from 19. August 2015, 16:29

Thy Art Is Murder / Holy War (Special Edition)

Used drive  : ASUS    DRW-24F1ST   a   Adapter: 1  ID: 0

Read mode               : Secure
Utilize accurate stream : Yes
Defeat audio cache      : Yes
Make use of C2 pointers : No

Read offset correction                      : 6
Overread into Lead-In and Lead-Out          : No
Fill up missing offset samples with silence : Yes
Delete leading and trailing silent blocks   : No
Null samples used in CRC calculations       : Yes
Used interface                              : Native Win32 interface for Win NT & 2000
Gap handling                                : Appended to previous track

Used output format              : User Defined Encoder
Selected bitrate                : 1024 kBit/s
Quality                         : High
Add ID3 tag                     : No
Command line compressor         : C:\Program Files (x86)\Exact Audio Copy\Flac\flac.exe
Additional command line options : -8 -V -T "COMMENT=ripped by Sphinx414 from original CD" -T "ARTIST=%artist%" -T "TITLE=%title%" -T "ALBUM=%albumtitle%" -T "DATE=%year%" -T "TRACKNUMBER=%tracknr%" -T "GENRE=%genre%" -T "PERFORMER=%albuminterpret%" -T "COMPOSER=%composer%" %haslyrics%--tag-from-file=LYRICS="%lyricsfile%"%haslyrics% -T "ALBUMARTIST=%albumartist%" -T "ALBUM ARTIST=%albumartist%" -T "DISCNUMBER=%cdnumber%" -T "TOTALDISCS=%totalcds%" -T "TOTALTRACKS=%numtracks%" %source%

TOC of the extracted CD

     Track |   Start  |  Length  | Start sector | End sector
    ---------------------------------------------------------
        1  |  0:00.00 |  4:25.37 |         0    |    19911
        2  |  4:25.37 |  3:55.67 |     19912    |    37603
        3  |  8:21.29 |  4:00.18 |     37604    |    55621
        4  | 12:21.47 |  2:55.46 |     55622    |    68792
        5  | 15:17.18 |  4:16.70 |     68793    |    88062
        6  | 19:34.13 |  3:06.66 |     88063    |   102078
        7  | 22:41.04 |  4:03.13 |    102079    |   120316
        8  | 26:44.17 |  2:55.06 |    120317    |   133447
        9  | 29:39.23 |  3:33.49 |    133448    |   149471
       10  | 33:12.72 |  5:30.38 |    149472    |   174259
       11  | 38:43.35 |  2:23.73 |    174260    |   185057

Track  1

     Filename H:\@OwnCDRips_Archive\Thy Art Is Murder (Australia)\2015 - Holy War (Special Edition) [27361 - 35080]\01 - Absolute Genocide.wav

     Pre-gap length  0:00:02.00

     Peak level 100.0 %
     Extraction speed 1.7 X
     Track quality 100.0 %
     Test CRC 0A5DE76B
     Copy CRC 0A5DE76B
     Accurately ripped (confidence 4)  [18C64C5F]  (AR v2)
     Copy OK

Track  2

     Filename H:\@OwnCDRips_Archive\Thy Art Is Murder (Australia)\2015 - Holy War (Special Edition) [27361 - 35080]\02 - Light Bearer.wav

     Peak level 100.0 %
     Extraction speed 1.9 X
     Track quality 100.0 %
     Test CRC 1170BAB8
     Copy CRC 1170BAB8
     Accurately ripped (confidence 4)  [31DBFC1B]  (AR v2)
     Copy OK

Track  3

     Filename H:\@OwnCDRips_Archive\Thy Art Is Murder (Australia)\2015 - Holy War (Special Edition) [27361 - 35080]\03 - Holy War.wav

     Peak level 100.0 %
     Extraction speed 2.1 X
     Track quality 100.0 %
     Test CRC A3B1FAA4
     Copy CRC A3B1FAA4
     Accurately ripped (confidence 4)  [E0348A85]  (AR v2)
     Copy OK

Track  4

     Filename H:\@OwnCDRips_Archive\Thy Art Is Murder (Australia)\2015 - Holy War (Special Edition) [27361 - 35080]\04 - Coffin Dragger (Featuring Winston McCall from 'Parkway Drive').wav

     Peak level 100.0 %
     Extraction speed 1.7 X
     Track quality 99.9 %
     Test CRC 4E6677E7
     Copy CRC 4E6677E7
     Accurately ripped (confidence 4)  [A4FBBCA5]  (AR v2)
     Copy OK

Track  5

     Filename H:\@OwnCDRips_Archive\Thy Art Is Murder (Australia)\2015 - Holy War (Special Edition) [27361 - 35080]\05 - Fur And Claw.wav

     Peak level 100.0 %
     Extraction speed 2.0 X
     Track quality 99.9 %
     Test CRC F010CD33
     Copy CRC F010CD33
     Accurately ripped (confidence 4)  [BA90A2E2]  (AR v2)
     Copy OK

Track  6

     Filename H:\@OwnCDRips_Archive\Thy Art Is Murder (Australia)\2015 - Holy War (Special Edition) [27361 - 35080]\06 - Deliver Us To Evil.wav

     Peak level 100.0 %
     Extraction speed 1.9 X
     Track quality 99.9 %
     Test CRC BFCC0999
     Copy CRC BFCC0999
     Accurately ripped (confidence 4)  [3AD6B459]  (AR v2)
     Copy OK

Track  7

     Filename H:\@OwnCDRips_Archive\Thy Art Is Murder (Australia)\2015 - Holy War (Special Edition) [27361 - 35080]\07 - Emptiness.wav

     Peak level 100.0 %
     Extraction speed 2.6 X
     Track quality 100.0 %
     Test CRC CB854735
     Copy CRC CB854735
     Accurately ripped (confidence 4)  [27925D1D]  (AR v2)
     Copy OK

Track  8

     Filename H:\@OwnCDRips_Archive\Thy Art Is Murder (Australia)\2015 - Holy War (Special Edition) [27361 - 35080]\08 - Violent Reckoning.wav

     Peak level 100.0 %
     Extraction speed 2.6 X
     Track quality 100.0 %
     Test CRC 5D55BCE7
     Copy CRC 5D55BCE7
     Accurately ripped (confidence 4)  [80996F56]  (AR v2)
     Copy OK

Track  9

     Filename H:\@OwnCDRips_Archive\Thy Art Is Murder (Australia)\2015 - Holy War (Special Edition) [27361 - 35080]\09 - Child Of Sorrow.wav

     Peak level 100.0 %
     Extraction speed 2.7 X
     Track quality 100.0 %
     Test CRC EF63D5F1
     Copy CRC EF63D5F1
     Accurately ripped (confidence 4)  [2D669833]  (AR v2)
     Copy OK

Track 10

     Filename H:\@OwnCDRips_Archive\Thy Art Is Murder (Australia)\2015 - Holy War (Special Edition) [27361 - 35080]\10 - Naked And Cold.wav

     Peak level 100.0 %
     Extraction speed 3.1 X
     Track quality 100.0 %
     Test CRC B25B0D77
     Copy CRC B25B0D77
     Accurately ripped (confidence 4)  [D4BAD65B]  (AR v2)
     Copy OK

Track 11

     Filename H:\@OwnCDRips_Archive\Thy Art Is Murder (Australia)\2015 - Holy War (Special Edition) [27361 - 35080]\11 - Vengeance (Bonus Track).wav

     Peak level 100.0 %
     Extraction speed 2.8 X
     Track quality 100.0 %
     Test CRC 134F5634
     Copy CRC 134F5634
     Accurately ripped (confidence 4)  [5F13F00E]  (AR v2)
     Copy OK

All tracks accurately ripped

No errors occurred

End of status report

Отчёт auCDtect Task Manager:

Код: выделить все
-----------------------

DON'T MODIFY THIS FILE

-----------------------

PERFORMER: auCDtect Task Manager, ver. 1.6.0 RC1 build 1.6.0.1
Copyright (c) 2008-2010 y-soft. All rights reserved
http://y-soft.org

ANALYZER: auCDtect: CD records authenticity detector, version 0.8.2
Copyright (c) 2004 Oleg Berngardt. All rights reserved.
Copyright (c) 2004 Alexander Djourik. All rights reserved.

FILE: 11 - Vengeance (Bonus Track).flac
  Size: 18371899 Hash: 659C7F1F66FC6DCAB9349547B788C10E Accuracy: -m0
  Conclusion: CDDA 100%
  Signature: BFEC7A05EDC76E02D184F48FFFE95627C197E47D
FILE: 10 - Naked And Cold.flac
  Size: 39864848 Hash: DA4B9D35E37D8AD7CAD2FBF55F531BE5 Accuracy: -m0
  Conclusion: CDDA 100%
  Signature: 8116D11079D45EC5B9CD4BC40864FDF41A05445B
FILE: 09 - Child Of Sorrow.flac
  Size: 27868917 Hash: FDD8D15C1ECFA1E831CF05C4F88E8813 Accuracy: -m0
  Conclusion: CDDA 99%
  Signature: DB44D7E96B9CE7F1D618F7560BC0A3F2604B1790
FILE: 08 - Violent Reckoning.flac
  Size: 23214781 Hash: 7D749CBBC04897F9AD6B9EA9BA7601FC Accuracy: -m0
  Conclusion: CDDA 100%
  Signature: 5449E6058410927EF249EF7875F368DD2DB9F66F
FILE: 07 - Emptiness.flac
  Size: 30588383 Hash: 294328C66CEA74C5B23BA18DC748656F Accuracy: -m0
  Conclusion: CDDA 100%
  Signature: 7294D8B08F4FC7FC832A34E95C988F100385C148
FILE: 06 - Deliver Us To Evil.flac
  Size: 24555456 Hash: 4C6441D20AD0967D803D2562F2C0A228 Accuracy: -m0
  Conclusion: CDDA 100%
  Signature: 5EEA33B84D674529E81893E3CF73A2E20AAEC30B
FILE: 05 - Fur And Claw.flac
  Size: 33846749 Hash: 6BBB94F0A8B963EA6229A11CF4F4CD28 Accuracy: -m0
  Conclusion: CDDA 100%
  Signature: 7D334A9E0356218E57BEA38C72E11A3A93FE3077
FILE: 04 - Coffin Dragger (Featuring Winston McCall from 'Parkway Drive').flac
  Size: 22703959 Hash: 647D452028487A7801F993164C2E2D37 Accuracy: -m0
  Conclusion: CDDA 99%
  Signature: DB5574B4EC3A7711BBF4663C14529FDA0904F328
FILE: 03 - Holy War.flac
  Size: 30771149 Hash: 3F23E8AE19EFCE52AFD03F9AD24761DA Accuracy: -m0
  Conclusion: CDDA 100%
  Signature: C2CBE3C91F8CEB5997832135B3514DABD06D4086
FILE: 02 - Light Bearer.flac
  Size: 31039480 Hash: 831D2278480CB3F1040A762DC3A5A546 Accuracy: -m0
  Conclusion: CDDA 100%
  Signature: 931208982CAB8D92BD9D1A836979D66CF62F07A7
FILE: 01 - Absolute Genocide.flac
  Size: 33742331 Hash: 0CA88C4E131DB9320D41836A2CACD1C6 Accuracy: -m0
  Conclusion: CDDA 100%
  Signature: 98F40B76DF161B2690A6C1109A4DD6410607DB80

2016 - The Depression Sessions (Split EP)


Источник релиза: 7digital
Продолжительнoсть: 00:28:38

Трeклист:
[05:00] 01. Thy Art Is Murder - They Will Know Another
[04:53] 02. The Acacia Strain - Sensory Deprivation
[04:57] 03. Fit For An Autopsy - Flatlining
[03:51] 04. Thy Art Is Murder - Du Hast (Rammstein cover)
[05:30] 05. The Acacia Strain - Black Hole Sun (Soundgarden cover)
[04:25] 06. Fit For An Autopsy - The Perfect Drug (Nine Inch Nails cover)

Отчёт auCDtect Task Manager:

Код: выделить все
-----------------------

DON'T MODIFY THIS FILE

-----------------------

PERFORMER: auCDtect Task Manager, ver. 1.6.0 RC1 build 1.6.0.1
Copyright (c) 2008-2010 y-soft. All rights reserved
http://y-soft.org

ANALYZER: auCDtect: CD records authenticity detector, version 0.8.2
Copyright (c) 2004 Oleg Berngardt. All rights reserved.
Copyright (c) 2004 Alexander Djourik. All rights reserved.

FILE: 06. Fit For An Autopsy - The Perfect Drug (Nine Inch Nails cover).flac
  Size: 32510496 Hash: F7D51F5B96FF87CF769D80E7687F880F Accuracy: -m0
  Conclusion: CDDA 100%
  Signature: 8B5801DA71D684C5610AB730AA95C5A963EA5410
FILE: 05. The Acacia Strain - Black Hole Sun (Soundgarden cover).flac
  Size: 40997240 Hash: 8015B519CC40FEA724E32933989EC04F Accuracy: -m0
  Conclusion: CDDA 99%
  Signature: 6EDC4F21E5A3F8E0B2EEFEB2DD8B16A470AF3A15
FILE: 04. Thy Art Is Murder - Du Hast (Rammstein cover).flac
  Size: 29793335 Hash: 884B66DE9D229718C3E71D82BD7C0C25 Accuracy: -m0
  Conclusion: CDDA 99%
  Signature: 69FD3A4502EAB71AA8065138134DCE8EA3835FF7
FILE: 03. Fit For An Autopsy - Flatlining.flac
  Size: 36445123 Hash: 4C8C141CFE04050FF4FC7BF4D3EECF44 Accuracy: -m0
  Conclusion: CDDA 100%
  Signature: 3BBFB9A10E04255BCE9AB4B9EDD3B6CF8A7D4EA2
FILE: 02. The Acacia Strain - Sensory Deprivation.flac
  Size: 37445105 Hash: A14CE3325131AFDC00522C9CFB9019FA Accuracy: -m0
  Conclusion: CDDA 100%
  Signature: 09710876856F6C2C806D9BD7673F1F69AC67533E
FILE: 01. Thy Art Is Murder - They Will Know Another.flac
  Size: 39973719 Hash: BB5D2835987B0066A3E924F7E8D1D4A0 Accuracy: -m0
  Conclusion: CDDA 100%
  Signature: 2CA77BE0F143C9CAEF2FD0D9AC07D5A5FCE324AB

2017 - Dear Desolation


Источник релиза: 7digital
Продолжительнoсть: 00:38:20

Трeклист:
[03:44] 01. Slaves Beyond Death
[04:18] 02. The Son Of Misery
[03:15] 03. Puppet Master
[03:21] 04. Dear Desolation
[04:08] 05. Death Dealer
[03:28] 06. Man Is The Enemy
[03:58] 07. The Skin Of The Serpent
[04:10] 08. Fire In The Sky
[04:05] 09. Into Chaos We Climb
[03:50] 10. The Final Curtain

Отчёт auCDtect Task Manager:

Код: выделить все
-----------------------

DON'T MODIFY THIS FILE

-----------------------

PERFORMER: auCDtect Task Manager, ver. 1.6.0 RC1 build 1.6.0.1
Copyright (c) 2008-2010 y-soft. All rights reserved
http://y-soft.org

ANALYZER: auCDtect: CD records authenticity detector, version 0.8.2
Copyright (c) 2004 Oleg Berngardt. All rights reserved.
Copyright (c) 2004 Alexander Djourik. All rights reserved.

FILE: 10 - The Final Curtain.flac
  Size: 33304815 Hash: 116DFF7248ED699B17AF9E5FB53ADF64 Accuracy: -m0
  Conclusion: CDDA 100%
  Signature: DD749A97F8071F2B56D0613F0B1CC16A2D24F95A
FILE: 09 - Into Chaos We Climb.flac
  Size: 35326138 Hash: 2267196F398DFBC4D7861E68F3C33F1E Accuracy: -m0
  Conclusion: CDDA 100%
  Signature: 98F657FD059D9CC5AC05AC09EC08CEFAB45A396E
FILE: 08 - Fire In The Sky.flac
  Size: 36030995 Hash: 91214683615C824EABD8042FCC96A311 Accuracy: -m0
  Conclusion: CDDA 100%
  Signature: E4F947EE44E6988907522C459C11655922B2F13A
FILE: 07 - The Skin Of The Serpent.flac
  Size: 32331156 Hash: 169FE9F66C8492836E03F68F543AFE24 Accuracy: -m0
  Conclusion: CDDA 100%
  Signature: 77CAB5A98F607C138A6A0C291ED887D856C9ED02
FILE: 06 - Man Is The Enemy.flac
  Size: 30515570 Hash: 6253157EFB6AAC2305CF934A8974842D Accuracy: -m0
  Conclusion: CDDA 99%
  Signature: 71B2F50F9DC84DF95882F5D86E8FB66D994D51B0
FILE: 05 - Death Dealer.flac
  Size: 34686231 Hash: 47D0C12FD60A6F28F92973C4D678F8D6 Accuracy: -m0
  Conclusion: CDDA 100%
  Signature: 5ED68E0211CD2D7A51B331F3F0B034F8C9F324B0
FILE: 04 - Dear Desolation.flac
  Size: 29696242 Hash: BCCDD6BADCDA915D0C68DA268A2713D0 Accuracy: -m0
  Conclusion: CDDA 100%
  Signature: 9AB760CB3BFD6D44C63CDB0C19C5ABAE4DA0B6AB
FILE: 03 - Puppet Master.flac
  Size: 28969784 Hash: 28800D3E1F8AEDDD590035965A968000 Accuracy: -m0
  Conclusion: CDDA 99%
  Signature: 9035DEA28B1BE4C694C774B5BE04DFE091606A88
FILE: 02 - The Son Of Misery.flac
  Size: 36851077 Hash: 75821DBAD2F74835643B028F9D462227 Accuracy: -m0
  Conclusion: CDDA 100%
  Signature: 68F3F1CE851BFBF63B6205EC58D0AF6B03A07107
FILE: 01 - Slaves Beyond Death.flac
  Size: 32212276 Hash: EF108DC9181F7CDE283EE6C94D9B45BB Accuracy: -m0
  Conclusion: CDDA 100%
  Signature: 2348685DEBFFBF30D1CB56FF2107949B072177DB

Состав


off-site
Sean Delander - Guitar (2006–2010, 2014–present), Bass (2010–2014)
Lee Stanton - Drums (2006–present)
Kevin Butler - Bass (2015–present)
Andy Marsh - Guitar (2010–present)
Chris «CJ» McMahon - Vocals (2009–2015, 2017–present)


Треклист:
2008 - Infinite Death (EP)
2010 - The Adversary
2012 - Hate
2015 - Holy War (Special Edition)
2016 - The Depression Sessions (Split EP)
2017 - Dear Desolation
Детали торрента:
Название:Thy Art Is Murder - 4 Альбома + 2 EP (2008-2017) [FLAC|tracks|Lossless]<Technical Deathcore, Death Metal>
Дата добавления:20 Авг 2017 20:58:03
Размер:1,65 GB
Раздают:
Качают:0
Форум:Metal (Lossless)

All rights reserved © 2015-2018