TORRENTS43.COM

Скачать Золушка / Cinderella (2015) HDRip [H.264/720p-LQ] [hand made 60fps]


Золушка / Cinderella (2015) HDRip [H.264/720p] [hand made 60fps] «Midnight is just the beginning»
Производство: США, Великобритания / Allison Shearmur Productions, Beagle Pug Films
Жанр: Фэнтези, Драма, Мелодрама, Семейный

Режиссер: Кеннет Брана
Продюсер: Дэвид Баррон, Саймон Кинберг, Эллисон Шермур
Актеры: Лили Джеймс, Кейт Бланшетт, Ричард Мэдден, Хелена Бонем Картер ,Нонсо Анози, Стеллан Скарсгард, Софи МакШера, Холлидей Грейнджер, Дерек Джекоби, Бен Чаплин

Описание:
Отец молодой девушки по имени Элла, овдовев, женится во второй раз, и вскоре Элла оказывается один на один с жадными и завистливыми новыми родственницами - мачехой Леди Тремэйн и ее дочерьми - Анастасией и Дризеллой. Из хозяйки дома она превращается в служанку, вечно испачканную золой, за что и получает от своих сварливых сводных сестриц прозвище - Золушка. Несмотря на злоключения, выпавшие на ее долю, Золушка не отчаивается, ведь даже в самые тяжелые моменты находится что-то, что помогает ей думать о хорошем: например, случайная встреча на лесной тропинке с прекрасным юношей. Элла даже не предполагает, что встретилась с самим принцем, и что вскоре Фея-крестная навсегда поменяет её жизнь к лучшему...


Рейтинг MPAA: - Рекомендуется присутствие родителей

Дата мировой премьеры: 13 февраля 2015
Дата российской премьеры: 6 марта 2015, «WDSSPR»
Дата выхода Blu-Ray релиза: 1 сентября 2015, «Уолт Дисней Компани СНГ»
Дата выхода DVD релиза: 1 сентября 2015, «Уолт Дисней Компани СНГ»

Продолжительность: 01:45:22
Качество: HDRip

Перевод: Дублированный (iTunes Russia)
Субтитры: Отсутствуют

Видео: AVC/H.264, ~3682 kbps, 1280x536 (2,40:1), 60.000 fps, High@L4.1, 0.089 bit/px*fr
Аудио: AC-3, 384 Кбит/сек, 6 канала(ов), 48,0 КГц - Дублированный / Русский

MediaInfo

Код:

Общее
Полное имя                               : F:\Cinderella - 2015 HDRip [720p] [hand made 60fps].mkv
Формат                                   : Matroska
Версия формата                           : Version 2
Размер файла                             : 3,05 Гбайт
Продолжительность                        : 1 ч. 45 м.
Общий поток                              : 4148 Кбит/сек
Дата кодирования                         : UTC 2015-07-05 10:21:36
Программа кодирования                    : mkvmerge v5.8.0 ('No Sleep / Pillow') built on Sep  2 2012 15:37:04
Библиотека кодирования                   : libebml v1.2.3 + libmatroska v1.3.0

Видео
Идентификатор                            : 1
Формат                                   : AVC
Формат/Информация                        : Advanced Video Codec
Профиль формата                          : High@L4.1
Параметр CABAC формата                   : Да
Параметр ReFrames формата                : 4 кадра
Режим смешивания                         : Header stripping
Идентификатор кодека                     : V_MPEG4/ISO/AVC
Продолжительность                        : 1 ч. 45 м.
Битрейт                                  : 3682 Кбит/сек
Ширина                                   : 1280 пикселей
Высота                                   : 536 пикселей
Соотношение сторон                       : 2,40:1
Режим частоты кадров                     : Постоянный
Частота кадров                           : 60,000 кадров/сек
Цветовое пространство                    : YUV
Субдискретизация насыщенности            : 4:2:0
Битовая глубина                          : 8 бит
Тип развёртки                            : Прогрессивная
Бит/(Пиксели*Кадры)                      : 0.089
Размер потока                            : 2,71 Гбайт (89%)
Библиотека кодирования                   : x264 core 130 r2273 b3065e6
Настройки программы                      : cabac=1 / ref=4 / deblock=1:-1:-1 / analyse=0x3:0 / me=umh / subme=9 / psy=1 / psy_rd=1.00:0.10 / mixed_ref=1 / me_range=24 / chroma_me=0 / trellis=1 / 8x8dct=1 / cqm=0 / deadzone=21,11 / fast_pskip=0 / chroma_qp_offset=-3 / threads=12 / lookahead_threads=1 / sliced_threads=0 / nr=0 / decimate=0 / interlaced=0 / bluray_compat=0 / constrained_intra=0 / bframes=5 / b_pyramid=2 / b_adapt=2 / b_bias=0 / direct=1 / weightb=1 / open_gop=0 / weightp=2 / keyint=599 / keyint_min=59 / scenecut=40 / intra_refresh=0 / rc=crf / mbtree=0 / crf=18.0 / qcomp=0.60 / qpmin=0 / qpmax=69 / qpstep=4 / ip_ratio=1.40 / pb_ratio=1.30 / aq=1:0.90
Default                                  : Да
Forced                                   : Нет

Аудио
Идентификатор                            : 2
Формат                                   : AC-3
Формат/Информация                        : Audio Coding 3
Расширение режима                        : CM (complete main)
Параметр Endianness формата              : Big
Режим смешивания                         : Header stripping
Идентификатор кодека                     : A_AC3
Продолжительность                        : 1 ч. 45 м.
Вид битрейта                             : Постоянный
Битрейт                                  : 384 Кбит/сек
Каналы                                   : 6 каналов
Расположение каналов                     : Front: L C R, Side: L R, LFE
Частота                                  : 48,0 КГц
Метод сжатия                             : С потерями
Размер потока                            : 289 Мбайт (9%)
Заголовок                                : DUB (iTunes)
Язык                                     : Russian
Default                                  : Да
Forced                                   : Нет

Знаете ли вы, что...

• Фильм снимался в павильонах английской студии Pinewood Studios и на различных натурных площадках в Англии.
• На создание платья для Феи-Крёстной у художницы по костюмам Сэнди Пауэлл ушло:
120 метров ткани;
400 светодиодов;
тысячи кристаллов Swarovski.
Ширина платья составила почти 120 сантиметров.
• Первоначально режиссером фильма был назначен Марк Романек, но он выбыл из проекта в связи с творческими разногласиями.
• Главная роль предлагалась Эмме Уотсон, но она отказалась.
• На роль Золушки рассматривались Сирша Ронан, Алисия Викандер, Имоджен Путс и Габриэлла Уайлд.
• На пошив платья Золушки ушло более 240 метров ткани и 10 000 кристаллов Swarovski, а также было сделано более 4800 метров стежков. Для съемок фильма было изготовлено 9 абсолютно одинаковых платьев.
• При работе над замком и бальной залой Данте Ферретти использовал различные архитектурные стили из разных эпох и локаций, по большей части – элементы стилей европейской архитектуры XVI, XVII и XVIII веков. Зал получился огромным – 45 метров в длину и 32 метра в ширину. Он занял целиком весь седьмой павильон студии Pinewood. Интерьер был роскошным:
мраморные полы;
массивная лестница;
шторы, на пошив которых ушло более чем 1800 метров ткани;
17 огромных люстр, изготовленных на заказ в Италии;
более 3600 метров бирюзового бархата для обивки стен;
более 16 000 искусственных цветов из шёлка,
а также 5000 свечей, каждая из которых была изготовлена вручную.
• В фильме сестры Анастасия и Дризелла всегда одеты в одинаковые по фасону, но разные по цвету платья, так же как и в одноименном анимационном фильме Disney.
• Золушка читает вслух сказку, написанную бурундучком Пипом — героем диснеевского фильма «Зачарованная» (2007), в финале которого Пип презентует свою книгу.
Скриншоты:


Смотреть Online

http://moonwalk.cc/video/880e8c29bfaf2e581386a7e367461461/iframe
Детали торрента:
Название:Золушка / Cinderella (2015) HDRip [H.264/720p-LQ] [hand made 60fps]
Дата добавления:05 Июл 2015 14:15:01
Размер:3,05 GB
Раздают:
Качают:0
Форум:hand made * video

All rights reserved © 2015-2018