TORRENTS43.COM

Скачать Senki Zesshou Symphogear GX | Последняя Песня Боевых Принцесс - Мехасимфония [2015, TV, 13] HDTV 720p raw


戦姫絶唱シンフォギアGX
Senki Zesshou Symphogear GX
Последняя Песня Боевых Принцесс - Мехасимфония



Жанр: махо-сёдзё
Тип: TV-сериал
Продолжительность: каждый эпизод по 25 минут
Период выхода: c 04.07.2015 по 26.09.2015
Студия:
Режиссер: Оно Кацуми / Ono Katsumi / 小野勝巳

Качество видео: HDTV
Видео: h.264, 1280x720, 23.976 fps, ~3100 kbit/s
Аудио: AAC, 48 kHz, 2 ch, ~192 kbit/s [Японский]
Субтитры: внешние русские [I.D.A.]

Ссылки:
официальный сайт
World-Art          ANN          AniDB          MyAnimeList


Описание:
Земле недалекого будущего угрожают Нойз – странные существа, превращающие органику в углерод. Обычное оружие на пришельцев не действует, потому единственная надежда человечества – девушки, что силой песни могут активировать древние кристаллы и облачиться в неуязвимый Симфо-доспех. Но кристаллов мало, а кандидаток в бойцы еще меньше, не помогает и программа поиска, запущенная правительством Японии под прикрытием музыкальной академии Лиморан. До поры до времени всю тяжесть борьбы с Нойз несли Канадэ Амо и Цубаса Кадзанари, известные миру как звездный дуэт «Два крыла». Только ничто не длится вечно…

Во время очередного концерта началась массированная атака Нойз, и Канадэ пожертвовала собой, чтобы спасти девочку, не успевшую эвакуироваться. Спасенная по имени Хибики Татибана выжила, а через два года выяснилось, что части артефакта Канадэ, попавшие в ее тело, позволяют вызывать собственную, хоть и несовершенную версию Симфо-доспеха. Прямая и непосредственная Хибики твердо решила отдать долг и включиться в защиту родины. Цубаса, ожесточившаяся после гибели подруги, сперва и слышать не хотела о напарнице, но суровая реальность показала ей, что в одиночку много не навоюешь. Так родилась новая команда «боевых принцесс», а что будет дальше – мы скоро узнаем!
© Hollow, World Art

Эпизоды:

1. Murderer of Miracles
2. Before I Destroy the World
3. Twilight of the Wielders
4. Gungnir, Once More
5. Edge Works
6. Drawn Blade
7. Carry On the Shining Light, and Stay True to Yourself
8. The Courage to Face It
9. The Middle of a Dream
10. It`s So Cruel, But...
11. It`s All Right. Everything Is Just Fine
12. GX
13. Believe in Justice, and Hold It Close

Связанные разадчи

#1Senki Zesshou Symphogear - ТВ (13 эп.), начало цикла, 2012   [HDTV 720p]      [BDRip 1080p]   
#2Senki Zesshou Symphogear G - ТВ (13 эп.), продолжение, 2013[HDTV 720p][BDRip 1080p]
#3Senki Zesshou Symphogear GX - ТВ (13 эп.), продолжение, 2015[HDTV 720p]

MediaInfo

Код:
General
Complete name                            : E:\Anime\Senki Zesshou Symphogear GX\[Leopard-Raws] Senki Zesshou Symphogear GX - 01 RAW (MBS 1280x720 x264 AAC).mp4
Format                                   : MPEG-4
Format profile                           : Base Media
Codec ID                                 : isom
File size                                : 570 MiB
Duration                                 : 23mn 59s
Overall bit rate mode                    : Variable
Overall bit rate                         : 3 324 Kbps
Encoded date                             : UTC 2015-07-04 00:50:28
Tagged date                              : UTC 2015-07-04 00:50:28

Video
ID                                       : 1
Format                                   : AVC
Format/Info                              : Advanced Video Codec
Format profile                           : High@L4.1
Format settings, CABAC                   : Yes
Format settings, ReFrames                : 4 frames
Codec ID                                 : avc1
Codec ID/Info                            : Advanced Video Coding
Duration                                 : 23mn 59s
Bit rate                                 : 3 129 Kbps
Maximum bit rate                         : 17.7 Mbps
Width                                    : 1 280 pixels
Height                                   : 720 pixels
Display aspect ratio                     : 16:9
Frame rate mode                          : Constant
Frame rate                               : 23.976 fps
Color space                              : YUV
Chroma subsampling                       : 4:2:0
Bit depth                                : 8 bits
Scan type                                : Progressive
Bits/(Pixel*Frame)                       : 0.142
Stream size                              : 537 MiB (94%)
Title                                    : 264:fps=23.976@GPAC0.5.1-DEV-rev4929
Writing library                          : x264 core 129 r2245+729M 1a52e03
Encoding settings                        : cabac=1 / ref=4 / deblock=1:1:-1 / analyse=0x3:0x113 / me=umh / subme=9 / psy=1 / fade_compensate=0.00 / psy_rd=1.00:0.00 / mixed_ref=1 / me_range=24 / chroma_me=1 / trellis=2 / 8x8dct=1 / cqm=0 / deadzone=21,11 / fast_pskip=1 / chroma_qp_offset=-2 / threads=8 / lookahead_threads=1 / sliced_threads=0 / nr=0 / decimate=1 / interlaced=0 / bluray_compat=0 / constrained_intra=0 / fgo=0 / bframes=9 / b_pyramid=2 / b_adapt=2 / b_bias=0 / direct=1 / weightb=1 / open_gop=0 / weightp=2 / keyint=240 / keyint_min=24 / scenecut=40 / intra_refresh=0 / rc=crf / mbtree=0 / crf=18.5 / qcomp=0.72 / qpmin=0 / qpmax=69 / qpstep=4 / ip_ratio=1.40 / pb_ratio=1.30 / aq=1:0.85
Encoded date                             : UTC 2015-07-04 00:50:28
Tagged date                              : UTC 2015-07-04 00:50:31
Color range                              : Limited
Color primaries                          : BT.709
Transfer characteristics                 : BT.709
Matrix coefficients                      : BT.709

Audio
ID                                       : 2
Format                                   : AAC
Format/Info                              : Advanced Audio Codec
Format profile                           : LC
Codec ID                                 : 40
Duration                                 : 23mn 59s
Bit rate mode                            : Variable
Bit rate                                 : 192 Kbps
Maximum bit rate                         : 229 Kbps
Channel(s)                               : 2 channels
Channel positions                        : Front: L R
Sampling rate                            : 48.0 KHz
Compression mode                         : Lossy
Stream size                              : 33.0 MiB (6%)
Language                                 : Japanese
Encoded date                             : UTC 2015-07-03 18:54:03
Tagged date                              : UTC 2015-07-04 00:50:31

Скриншоты:



Детали торрента:
Название:Senki Zesshou Symphogear GX | Последняя Песня Боевых Принцесс - Мехасимфония [2015, TV, 13] HDTV 720p raw
Дата добавления:04 Окт 2015 22:58:26
Размер:7,17 GB
Раздают:
Качают:0
Форум:Аниме (HD)

All rights reserved © 2015-2018