TORRENTS43.COM

Скачать Оксана Душенковская | Профессиональный курс Ruby on Rails (2014) PCRec [H.264]


Оксана Душенковская | Профессиональный курс Ruby on Rails (2014) PCRec [H.264]
Автор (режиссер): Оксана Душенковская
Жанр: Ruby on Rails, фреймворк

Описание:
Самой большой проблемой всех учебников и статей, по которым начинают учиться начинающие программисты Ruby on Rails - это отсутствие нормальной практики.

Можно читать тонны материалов по веб-программированию на Ruby on Rails - и не научиться ничему, потому что знания, которые вы не успели применить, очень быстро забываются. Многие на полпути буквально устают, им надоедает бесконечное блуждание по различным материалам, из которых трудно собрать общую картину.

Хотите полностью реализовать реальный веб-проект на Ruby on Rails?
- Мы предлагаем вам выход из ситуации, в которую попадают 80% новичков, бросающих изучение на полпути.
- Получите все необходимые знания и сразу же примените их на практике.
- Алгоритм буквально такой: теория - практика, теория - практика и так до конца.

Продолжительность: 23:23:22
Качество видео: PCRec

Видео: AVC, 1366x768, ~619 Kbps
Аудио: WMA, 1 ch, 48 Kbps, VBR

Mediainfo:

Код:

General
Complete name               : C:\Users\Oleh\Downloads\! Tutorials\Rub.on.Rails.prof\1\RubyBursa01.mov
Format                      : MPEG-4
Format profile              : QuickTime
Codec ID                    : qt
File size                   : 181 MiB
Duration                    : 1h 31mn
Overall bit rate mode       : Variable
Overall bit rate            : 277 Kbps
Encoded date                : UTC 2014-06-16 19:38:27
Tagged date                 : UTC 2014-06-16 19:38:37
Writing library             : Apple QuickTime

Video
ID                          : 1
Format                      : AVC
Format/Info                 : Advanced Video Codec
Format profile              : High@L4
Format settings, CABAC      : Yes
Format settings, ReFrames   : 2 frames
Format settings, GOP        : M=2, N=30
Codec ID                    : avc1
Codec ID/Info               : Advanced Video Coding
Duration                    : 1h 28mn
Source duration             : 1h 28mn
Bit rate mode               : Variable
Bit rate                    : 232 Kbps
Maximum bit rate            : 768 Kbps
Width                       : 1 440 pixels
Height                      : 900 pixels
Display aspect ratio        : 16:10
Frame rate mode             : Variable
Frame rate                  : 3.387 fps
Original frame rate         : 25.000 fps
Minimum frame rate          : 0.002 fps
Maximum frame rate          : 85.714 fps
Color space                 : YUV
Chroma subsampling          : 4:2:0
Bit depth                   : 8 bits
Scan type                   : Progressive
Bits/(Pixel*Frame)          : 0.053
Stream size                 : 147 MiB (81%)
Source stream size          : 147 MiB (81%)
Encoded date                : UTC 2014-06-16 19:29:57
Tagged date                 : UTC 2014-06-16 19:38:37

Audio
ID                          : 2
Format                      : AAC
Format/Info                 : Advanced Audio Codec
Format profile              : LC
Codec ID                    : 40
Duration                    : 1h 31mn
Source duration             : 1h 31mn
Bit rate mode               : Constant
Bit rate                    : 50.9 Kbps
Nominal bit rate            : 48.0 Kbps
Channel(s)                  : 1 channel
Channel positions           : Front: C
Sampling rate               : 16.0 KHz
Compression mode            : Lossy
Stream size                 : 33.3 MiB (18%)
Source stream size          : 33.3 MiB (18%)
Language                    : English
Encoded date                : UTC 2014-06-16 19:38:21
Tagged date                 : UTC 2014-06-16 19:38:37

Дополнительная информация:

Что будет делать ваше первое приложение:
· авторизация пользователя
· проверка логина и пароля
· иметь автотесты
· использование валидаций
· поддержка нескольких языков (русский и английский)
· использование фильтров для вывода данных
· обработка ошибок
· редактирование данных
· добавление данных
· применение Ajax
· разделение по ролям
· постраничный вывод данных
· кроссбраузерность
Скриншоты:


Детали торрента:
Название:Оксана Душенковская | Профессиональный курс Ruby on Rails (2014) PCRec [H.264]
Дата добавления:12 Июл 2015 22:50:57
Размер:3,42 GB
Раздают:7
Качают:0
Форум:Компьютеры

All rights reserved © 2015-2018