TORRENTS43.COM

Скачать Need for Speed - E3 Gameplay Trailer (2015) WEBRip [H.264/720p-LQ] [Трейлер]


Need for Speed - E3 Gameplay Trailer (2015) WEBRip [H.264/720p-LQ] [Трейлер]
Жанр: Рейсинг, гонки
Дата релиза: 3 ноября 2015
Платформы: PC, Xbox One,PlayStation 4
Издатель:Electronic Arts
Разработчики: Ghost Games

Описание:
EA и Ghost Games отважились на перезапуск серии Need for Speed, отказались от дневных гонок и явно решили возродить старую добрую атмосферу Underground.

Продолжительность: 00.03.34
Качество видео: WEBRip
Перевод: Отсутствует

Видео: AVC/H.264, 1280х720, ~1801 Кбит/сек
Аудио: AAC, 2 ch, 192 Кбит/сек

Mediainfo:

Код:

Общее
Полное имя                               : C:\Users\Антон\Downloads\Need for Speed - E3 Gameplay Trailer - 1080p 60 fps.mp4
Формат                                   : MPEG-4
Профиль формата                          : Base Media / Version 2
Идентификатор кодека                     : mp42
Размер файла                             : 51,0 Мбайт
Продолжительность                        : 3 м. 34 с.
Режим общего битрейта                    : Переменный
Общий поток                              : 1996 Кбит/сек
Дата кодирования                         : UTC 2015-06-20 09:39:16
Дата пометки                             : UTC 2015-06-20 09:39:16
gsst                                     : 0
gstd                                     : 214435
gssd                                     : B55707486MM1437174740403563
gshh                                     : r3---sn-pivhx-n8vl.googlevideo.com

Видео
Идентификатор                            : 1
Формат                                   : AVC
Формат/Информация                        : Advanced Video Codec
Профиль формата                          : High@L3.1
Параметр CABAC формата                   : Да
Параметр ReFrames формата                : 1 кадр
Параметр GOP формата                     : M=1, N=60
Идентификатор кодека                     : avc1
Идентификатор кодека/Информация          : Advanced Video Coding
Продолжительность                        : 3 м. 34 с.
Битрейт                                  : 1801 Кбит/сек
Максимальный битрейт                     : 3651 Кбит/сек
Ширина                                   : 1280 пикселей
Высота                                   : 720 пикселей
Соотношение сторон                       : 16:9
Режим частоты кадров                     : Постоянный
Частота кадров                           : 30,000 кадров/сек
Цветовое пространство                    : YUV
Субдискретизация насыщенности            : 4:2:0
Битовая глубина                          : 8 бит
Тип развёртки                            : Прогрессивная
Бит/(Пиксели*Кадры)                      : 0.065
Размер потока                            : 46,0 Мбайт (90%)
Дата пометки                             : UTC 2015-06-20 09:39:18

Аудио
Идентификатор                            : 2
Формат                                   : AAC
Формат/Информация                        : Advanced Audio Codec
Профиль формата                          : LC
Идентификатор кодека                     : 40
Продолжительность                        : 3 м. 34 с.
Вид битрейта                             : Переменный
Битрейт                                  : 192 Кбит/сек
Максимальный битрейт                     : 202 Кбит/сек
Каналы                                   : 2 канала
Расположение каналов                     : Front: L R
Частота                                  : 44,1 КГц
Метод сжатия                             : С потерями
Размер потока                            : 4,91 Мбайт (10%)
Заголовок                                : IsoMedia File Produced by Google, 5-11-2011
Дата кодирования                         : UTC 2015-06-20 09:39:17
Дата пометки                             : UTC 2015-06-20 09:39:18
Скриншоты:


Детали торрента:
Название:Need for Speed - E3 Gameplay Trailer (2015) WEBRip [H.264/720p-LQ] [Трейлер]
Дата добавления:18 Июл 2015 03:11:36
Размер:51 MB
Раздают:
Качают:0
Форум:Игровое видео

All rights reserved © 2015-2018