TORRENTS43.COM

Скачать Любовь вразнос / Papa ou maman (2015) HDRip [576p] iPad


Любовь вразнос / Papa ou maman (2015) HDRip [576p] iPad
«Хочешь войны»

Год выпуска: 2015
Производство: Франция, Бельгия
Жанр: Комедия
Продолжительность: 01:23:57

Перевод: Дублированный (iTunes)
Режиссер: Мартин Бурбулон
Актеры: Лоран Лафитт, Марина Фоис, Александр Десрусу, Анна Лемаршан, Акилле Потье, Жюдит Эль Зейн, Микаэль Абитбуль, Ванесса Гуид, Мишель Вюйермоз, Анн Ле Ни

Мировая премьера: 16 января 2015



Описание: Они безбашенные и отвязные, и любят вразнос. Изменило ли их время и обстоятельства? Чтобы проверить это, они идут на крайние меры — объявляют друг другу войну. А на войне, как известно, все средства хороши.
Качество: HDRip
Контейнер: M4V
Видео: H.264, 1024x432, 2.40:1, 2 200 Kbps, 23.976 fps

Аудио 1: Русский/Дублированный (iTunes), AAC / 2.0 / 157 Kbps / 48.0 KHz
Аудио 2: Французский/Оригинальная дорожка , AAC / 2.0 / 156 Kbps / 48.0 KHz

iTunes Meta Tags

Код:

Sort Name: Papa ou maman
XID: Apple:vendor_id:2015-844991
contentID: 962035056
Screenwriters: Матьё Делапорт, Жером Фанстен, Александр де Ла Пательер
Producers: Александр де Ла Пательер, Дмитрий Рассам, Джонатан Блюменталь
Director: Мартин Бурбулон
Cast: Лоран Лафитт, Марина Фоис, Александр Десрусу, Анна Лемаршан, Акилле Потье, Жюдит Эль Зейн, Микаэль Абитбуль, Ванесса Гуид, Мишель Вюйермоз, Анн Ле Ни
Rating: 66
Long Description: Они безбашенные и отвязные, и любят вразнос. Изменило ли их время и обстоятельства? Чтобы проверить это, они идут на крайние меры - объявляют друг другу войну. А на войне, как известно, все средства хороши.
Description: Они безбашенные и отвязные, и любят вразнос. Изменило ли их время и обстоятельства? Чтобы проверить это, они идут на крайние меры - объявляют друг другу войну. А на войне, как известно, все средства хороши.
Release Date: 2015-01-16T08:00:00Z
Genre: Comédie
Artist: Martin Bourboulon
Name: Papa ou maman

MediaInfo

Код:

General
Complete name                            : /Users/imac/HandBrake/Lubov.vraznos.(SD).(pk).m4v
Format                                   : MPEG-4
Codec ID                                 : M4V
File size                                : 1.48 GiB
Duration                                 : 1h 23mn
Overall bit rate mode                    : Variable
Overall bit rate                         : 2 518 Kbps
Movie name                               : Papa ou maman
Performer                                : Martin Bourboulon
Genre                                    : Comédie
Recorded date                            : UTC 2015-01-16 08:00:00
Encoded date                             : UTC 2015-08-21 11:05:25
Tagged date                              : UTC 2015-08-21 11:05:45
Cover                                    : Yes
sonm                                     : Papa ou maman
desc                                     : Они безбашенные и отвязные, и любят вразнос. Изменило ли их время и обстоятельства? Чтобы проверить это, они идут на крайние меры - объявляют друг другу войну. А на войне, как известно, все средства хороши.
ldes                                     : Они безбашенные и отвязные, и любят вразнос. Изменило ли их время и обстоятельства? Чтобы проверить это, они идут на крайние меры - объявляют друг другу войну. А на войне, как известно, все средства хороши.
stik                                     : 9
rtng                                     : 0
cnID                                     : 962035056
xid                                      : Apple:vendor_id:2015-844991
iTunEXTC                                 : fr-movie|Tout public|000|
iTunMOVI                                 : <?xml version=\"1.0\" encoding=\"UTF-8\"?> / <!DOCTYPE plist PUBLIC \"-//Apple//DTD PLIST 1.0//EN\" \"http://www.apple.com/DTDs/PropertyList-1.0.dtd\"> / <plist version=\"1.0\"> / <dict> /   <key>cast</key> /   <array> /     <dict> /       <key>name</key> /       <string>Лоран Лафитт</string> /     </dict> /     <dict> /       <key>name</key> /       <string>Марина Фоис</string> /     </dict> /     <dict> /       <key>name</key> /       <string>Александр Десрусу</string> /     </dict> /     <dict> /       <key>name</key> /       <string>Анна Лемаршан</string> /     </dict> /     <dict> /       <key>name</key> /       <string>Акилле Потье</string> /     </dict> /     <dict> /       <key>name</key> /       <string>Жюдит Эль Зейн</string> /     </dict> /     <dict> /       <key>name</key> /       <string>Микаэль Абитбуль</string> /     </dict> /     <dict> /       <key>name</key> /       <string>Ванесса Гуид</string> /     </dict> /     <dict> /       <key>name</key> /       <string>Мишель Вюйермоз</string> /     </dict> /     <dict> /       <key>name</key> /       <string>Анн Ле Ни</string> /     </dict> /   </array> /   <key>directors</key> /   <array> /     <dict> /       <key>name</key> /       <string>Мартин Бурбулон</string> /     </dict> /   </array> /   <key>producers</key> /   <array> /     <dict> /       <key>name</key> /       <string>Александр де Ла Пательер</string> /     </dict> /     <dict> /       <key>name</key> /       <string>Дмитрий Рассам</string> /     </dict> /     <dict> /       <key>name</key> /       <string>Джонатан Блюменталь</string> /     </dict> /   </array> /   <key>screenwriters</key> /   <array> /     <dict> /       <key>name</key> /       <string>Матьё Делапорт</string> /     </dict> /     <dict> /       <key>name</key> /       <string>Жером Фанстен</string> /     </dict> /     <dict> /       <key>name</key> /       <string>Александр де Ла Пательер</string> /     </dict> /   </array> / </dict> / </plist>

Video #1
ID                                       : 1
Format                                   : AVC
Format/Info                              : Advanced Video Codec
Format profile                           : High@L3.1
Format settings, CABAC                   : Yes
Format settings, ReFrames                : 9 frames
Codec ID                                 : avc1
Codec ID/Info                            : Advanced Video Coding
Duration                                 : 1h 23mn
Bit rate mode                            : Variable
Bit rate                                 : 2 200 Kbps
Width                                    : 1 024 pixels
Height                                   : 432 pixels
Display aspect ratio                     : 2.40:1
Frame rate mode                          : Variable
Frame rate                               : 23.976 fps
Minimum frame rate                       : 23.810 fps
Maximum frame rate                       : 24.318 fps
Color space                              : YUV
Chroma subsampling                       : 4:2:0
Bit depth                                : 8 bits
Scan type                                : Progressive
Bits/(Pixel*Frame)                       : 0.207
Stream size                              : 1.29 GiB (87%)
Writing library                          : x264 core 142 r2479 dd79a61
Encoding settings                        : cabac=1 / ref=9 / deblock=1:0:0 / analyse=0x3:0x113 / me=umh / subme=9 / psy=1 / psy_rd=1.00:0.00 / mixed_ref=1 / me_range=32 / chroma_me=1 / trellis=1 / 8x8dct=1 / cqm=0 / deadzone=21,11 / fast_pskip=1 / chroma_qp_offset=-2 / threads=36 / lookahead_threads=3 / sliced_threads=0 / nr=0 / decimate=1 / interlaced=0 / bluray_compat=0 / constrained_intra=0 / bframes=6 / b_pyramid=2 / b_adapt=2 / b_bias=0 / direct=1 / weightb=1 / open_gop=0 / weightp=2 / keyint=240 / keyint_min=24 / scenecut=40 / intra_refresh=0 / rc_lookahead=40 / rc=2pass / mbtree=1 / bitrate=2200 / ratetol=1.0 / qcomp=0.60 / qpmin=0 / qpmax=69 / qpstep=4 / cplxblur=20.0 / qblur=0.5 / ip_ratio=1.40 / aq=1:1.00
Language                                 : French
Encoded date                             : UTC 2015-08-21 11:05:25
Tagged date                              : UTC 2015-08-21 11:05:29
Color primaries                          : BT.709-5, BT.1361, IEC 61966-2-4, SMPTE RP177
Transfer characteristics                 : BT.709-5, BT.1361
Matrix coefficients                      : BT.709-5, BT.1361, IEC 61966-2-4 709, SMPTE RP177

Video #2
ID                                       : 5
Format                                   : JPEG
Codec ID                                 : jpeg
Duration                                 : 1h 23mn
Bit rate mode                            : Variable
Bit rate                                 : 584 bps
Width                                    : 640 pixels
Height                                   : 270 pixels
Display aspect ratio                     : 2.40:1
Frame rate mode                          : Variable
Frame rate                               : 0.002 fps
Minimum frame rate                       : 0.002 fps
Maximum frame rate                       : 0.005 fps
Color space                              : YUV
Chroma subsampling                       : 4:2:0
Bit depth                                : 8 bits
Compression mode                         : Lossy
Bits/(Pixel*Frame)                       : 1.690
Stream size                              : 427 KiB (0%)
Language                                 : French
Encoded date                             : UTC 2015-08-21 11:05:33
Tagged date                              : UTC 2015-08-21 11:05:33

Audio #1
ID                                       : 2
Format                                   : AAC
Format/Info                              : Advanced Audio Codec
Format profile                           : LC
Codec ID                                 : 40
Duration                                 : 1h 23mn
Bit rate mode                            : Variable
Bit rate                                 : 157 Kbps
Maximum bit rate                         : 246 Kbps
Channel(s)                               : 2 channels
Channel positions                        : Front: L R
Sampling rate                            : 48.0 KHz
Compression mode                         : Lossy
Stream size                              : 94.5 MiB (6%)
Language                                 : Russian
Encoded date                             : UTC 2015-08-21 11:05:25
Tagged date                              : UTC 2015-08-21 11:05:31

Audio #2
ID                                       : 3
Format                                   : AAC
Format/Info                              : Advanced Audio Codec
Format profile                           : LC
Codec ID                                 : 40
Duration                                 : 1h 23mn
Bit rate mode                            : Variable
Bit rate                                 : 156 Kbps
Maximum bit rate                         : 249 Kbps
Channel(s)                               : 2 channels
Channel positions                        : Front: L R
Sampling rate                            : 48.0 KHz
Compression mode                         : Lossy
Stream size                              : 93.8 MiB (6%)
Language                                 : French
Encoded date                             : UTC 2015-08-21 11:05:25
Tagged date                              : UTC 2015-08-21 11:05:31

Text
ID                                       : 4
Format                                   : Apple text
Codec ID                                 : text
Duration                                 : 1h 23mn
Bit rate mode                            : Constant
Bit rate                                 : 0 bps
Stream size                              : 312 Bytes (0%)
Language                                 : French
Encoded date                             : UTC 2015-08-21 11:05:31
Tagged date                              : UTC 2015-08-21 11:05:31

Menu
00:00:00.000                             : 00:00:00.000
00:03:26.164                             : 00:03:25.958
00:09:52.217                             : 00:09:52.125
00:16:25.568                             : 00:16:25.458
00:22:33.811                             : 00:22:33.708
00:28:32.002                             : 00:28:31.917
00:33:30.425                             : 00:33:30.333
00:44:21.659                             : 00:44:21.542
00:50:47.253                             : 00:50:47.167
00:59:50.921                             : 00:59:50.833
01:07:15.657                             : 01:07:15.542
01:17:23.848                             : 01:17:23.750

x264 лог

Код:

x264 [info]: frame I:1076  Avg QP:12.36  size: 72782
x264 [info]: frame P:30590 Avg QP:15.37  size: 22510
x264 [info]: frame B:89102 Avg QP:17.66  size:  6918
x264 [info]: consecutive B-frames:  3.6%  4.5% 10.4% 34.0% 18.1% 23.3%  6.1%
x264 [info]: mb I  I16..4: 11.7% 65.9% 22.4%
x264 [info]: mb P  I16..4:  2.8% 12.7%  3.2%  P16..4: 32.2% 25.6% 14.8%  0.0%  0.0%    skip: 8.7%
x264 [info]: mb B  I16..4:  0.3%  1.3%  0.3%  B16..8: 36.3% 12.7%  3.5%  direct: 5.6%  skip:40.0%  L0:43.4% L1:44.4% BI:12.2%
x264 [info]: 8x8 transform intra:67.8% inter:68.0%
x264 [info]: coded y,uvDC,uvAC intra: 79.1% 86.9% 68.0% inter: 26.7% 33.5% 10.8%
x264 [info]: i16 v,h,dc,p: 38% 13%  6% 44%
x264 [info]: i8 v,h,dc,ddl,ddr,vr,hd,vl,hu: 15% 10%  8%  8% 11% 13% 11% 12% 12%
x264 [info]: i4 v,h,dc,ddl,ddr,vr,hd,vl,hu: 14%  9%  4%  9% 14% 14% 13% 11% 11%
x264 [info]: i8c dc,h,v,p: 44% 21% 20% 15%
x264 [info]: Weighted P-Frames: Y:2.0% UV:0.9%
x264 [info]: ref P L0: 49.9% 10.5% 16.9%  6.3%  5.2%  3.6%  3.4%  1.9%  1.9%  0.3%  0.0%
x264 [info]: ref B L0: 73.2% 12.4%  5.8%  2.9%  2.4%  1.9%  1.1%  0.4%
x264 [info]: ref B L1: 92.3%  7.7%
x264 [info]: kb/s:2197.05

Скриншоты:





Релиз подготовлен для просмотра на Apple TV, iPad, iPhone, iPod Touch.
Для просмотра данного релиза на компьютере с ОС Windows рекомендуется использовать VLC media player

Смотреть Online

http://moonwalk.cc/video/abeb39ae4ab18e0e/iframe
Детали торрента:
Название:Любовь вразнос / Papa ou maman (2015) HDRip [576p] iPad
Дата добавления:21 Авг 2015 14:25:46
Размер:1,48 GB
Раздают:2
Качают:0
Форум:Зарубежное видео для устройств Apple

All rights reserved © 2015-2018