TORRENTS43.COM

Скачать Billy Idol - Devil's Playground (2005) [APE|lossless]<Punk rock>


Billy Idol - Devil's Playground (2005)
Год: 2005
Жанр: Punk rock
Продолжительность: 00:54:25

Кодек: APE
Битрейт: Lossless

Треклист:
01. Super Overdrive (4:18)
02. World Comin' Down (3:33)
03. Rat Race (4:18)
04. Sherri (3:17)
05. Plastic Jesus (4:53)
06. Scream (4:43)
07. Yellin' At The Xmas Tree (4:14)
08. Romeo's Waiting (3:43)
09. Body Snatcher (3:57)
10. Evil Eye (4:33)
11. Lady Do Or Die (4:37)
12. Cherie (3:47)
13. Summer Running (4:31)

  • Billy Idol — vocals
  • Steve Stevens — guitar
  • Stephen McGrath — bass
  • Derek Sherinian — keyboards
  • Brian Tichy — percussion, drums
  • Julian Beeston — drum programming

Отчёт ЕАС:

Код:
EAC extraction logfile from 19. May 2005, 19:56 for CD
Billy Idol / Devil's Playground

Used drive  : LITE-ON DVD SOHD-167T   Adapter: 3  ID: 1
Read mode   : Secure with NO C2, accurate stream, disable cache
Read offset correction : 0
Overread into Lead-In and Lead-Out : No

Used output format : Internal WAV Routines
                     44.100 Hz; 16 Bit; Stereo

Other options      :
    Fill up missing offset samples with silence : Yes
    Delete leading and trailing silent blocks : No
    Installed external ASPI interface

Range status and errors
Selected range
     Filename D:\Tmp\CDImage.wav

     Peak level 98.8 %
     Range quality 100.0 %
     CRC B642A2D8
     Copy OK

No errors occured

End of status report

Отчёт auCDtect Task manager:

Код:
-----------------------

DON'T MODIFY THIS FILE

-----------------------

PERFORMER: auCDtect Task Manager, ver. 1.6.0 RC1 build 1.6.0.1
Copyright (c) 2008-2010 y-soft. All rights reserved
http://y-soft.org

ANALYZER: auCDtect: CD records authenticity detector, version 0.8.2
Copyright (c) 2004 Oleg Berngardt. All rights reserved.
Copyright (c) 2004 Alexander Djourik. All rights reserved.

FILE: CDImage.ape
  Size: 408581468 Hash: BFD0DBCB00ED409360515302ACAFA1B5 Accuracy: -m0
  Conclusion: CDDA 100%
  Signature: 311D0B4E827A118AF9453C2C82E08346BBE92900

Содержание индексной карты (.CUE)

Код:
PERFORMER "Billy Idol"
TITLE "Devil's Playground"
FILE "CDImage.ape" WAVE
  TRACK 01 AUDIO
    TITLE "Super Overdrive"
    PERFORMER "Billy Idol"
    INDEX 01 00:00:00
  TRACK 02 AUDIO
    TITLE "World Comin' Down"
    PERFORMER "Billy Idol"
    INDEX 01 04:18:15
  TRACK 03 AUDIO
    TITLE "Rat Race"
    PERFORMER "Billy Idol"
    INDEX 01 07:51:39
  TRACK 04 AUDIO
    TITLE "Sherri"
    PERFORMER "Billy Idol"
    INDEX 00 12:08:71
    INDEX 01 12:09:05
  TRACK 05 AUDIO
    TITLE "Plastic Jesus"
    PERFORMER "Billy Idol"
    INDEX 00 15:25:12
    INDEX 01 15:26:30
  TRACK 06 AUDIO
    TITLE "Scream"
    PERFORMER "Billy Idol"
    INDEX 01 20:19:64
  TRACK 07 AUDIO
    TITLE "Yellin' At The Xmas Tree"
    PERFORMER "Billy Idol"
    INDEX 00 25:01:51
    INDEX 01 25:02:60
  TRACK 08 AUDIO
    TITLE "Romeo's Waiting"
    PERFORMER "Billy Idol"
    INDEX 00 29:16:37
    INDEX 01 29:16:63
  TRACK 09 AUDIO
    TITLE "Body Snatcher"
    PERFORMER "Billy Idol"
    INDEX 01 32:59:60
  TRACK 10 AUDIO
    TITLE "Evil Eye"
    PERFORMER "Billy Idol"
    INDEX 01 36:56:66
  TRACK 11 AUDIO
    TITLE "Lady Do Or Die"
    PERFORMER "Billy Idol"
    INDEX 01 41:29:43
  TRACK 12 AUDIO
    TITLE "Cherie"
    PERFORMER "Billy Idol"
    INDEX 01 46:07:04
  TRACK 13 AUDIO
    TITLE "Summer Running"
    PERFORMER "Billy Idol"
    INDEX 01 49:54:35
Детали торрента:
Название:Billy Idol - Devil's Playground (2005) [APE|lossless]<Punk rock>
Дата добавления:03 Авг 2008 16:14:07
Размер:392 MB
Раздают:
Качают:0
Форум:Alternative, Punk (Lossless)

All rights reserved © 2015-2018