TORRENTS43.COM

Скачать Kindaichi Shounen no Jikenbo Returns / Kindaichi Case Files Returns / Дело ведёт юный детектив Киндаичи: Возвращение [2014, TV, 32 из 50] HDTVRip 720p raw+rus


Kindaichi Shounen no Jikenbo Returns / Kindaichi Case Files Returns
Дело ведёт юный детектив Киндаичи: Возвращение

Тип: TV
Жанр: приключения, детектив
Продолжительность: 50 серий по 25 минут
Количество серий: 32

Дата выпуска: c 05.04.2014 по настоящее время
Производство: Toei Animation
Автор оригинала: Isao Murayama
Режиссер: Kaoru Wada

Ссылки: World-Art

Описание:
Спустя 20 с лишним лет юный детектив Киндачи снова вернулся на экраны и с новыми силами раскрывает очередные коварные преступления.

Продолжение сериала Дело ведёт юный детектив Киндаичи

Звук: Две дорожки: японский и русский (Saiko, Hell, Oni)
Язык субтитров: Отсутствуют

Качество видео: HDTVRip
Видео: AVC, 1280x720, 23,976 fps, ~1410 kbp
Аудио: (jp) A_AAC 2ch, 48 KHz, 192 kbps, (rus) A_AAC 2ch, 48 KHz, 227 kbps

Скриншоты:

Эпизоды:

01. Ковлунское сокровище Гонконга и дело об убийстве (Часть первая)
02. Ковлунское сокровище Гонконга и дело об убийстве (Часть вторая)
03. Ковлунское сокровище Гонконга и дело об убийстве (Часть третья)
04. Ковлунское сокровище Гонконга и дело об убийстве (Часть четвертая)
05. Хайами Рейка и загадочный гость
06. Кровавая жатва алхимика (Часть первая)
07. Кровавая жатва алхимика (Часть вторая)
08. Кровавая жатва алхимика (Часть третья)
09. Кровавая жатва алхимика (Часть четвёртая)
10. Ловушка в подготовительной школе и дело об убийстве (Часть первая)
11. Ловушка в подготовительной школе и дело об убийстве (Часть вторая)
12. Ловушка в подготовительной школе и дело об убийстве (Часть третья)
13. Ловушка в подготовительной школе и дело об убийстве (Часть четвертая)
14. Ловушка в подготовительной школе и дело об убийстве (Часть пятая)
15. Убийство в десяти тысячах метрах над землёй (Часть первая)
16. Убийство в десяти тысячах метрах над землёй (Часть вторая)
17. Загадочное дело духа палаточного лагеря.
18. Призрак школьного двора
19. Кровавый палач Кенмочи (Часть первая)
20. Кровавый палач Кенмочи (Часть вторая)
21. Кровавый палач Кенмочи (Часть третья)
22. Кровавый палач Кенмочи (Часть четвертая)
23. Игры в особняке и дело об убийстве (Часть первая)
24. Игры в особняке и дело об убийстве (Часть вторая)
25. Игры в особняке и дело об убийстве (Часть третья)

Сезон 2

01. (26) Марш смерти юного Киндаичи (Дело №1)
02. (27) Марш смерти юного Киндаичи (Дело №2)
03. (28) Марш смерти юного Киндаичи (Дело №3)
04. (29) Марш смерти юного Киндаичи (Дело №4)
05. (30) Убийство в кровавом бассейне (Дело №1)
06. (31) Убийство в кровавом бассейне (Дело №2)
07. (32) Убийство в поместье Розенкройтц (Дело №1)

Mediainfo:

Код:

Общее
Полное имя                               : [SHIZA Project] Kindaichi Shounen no Jikenbo Returns TV [HDTVRip]\[SHIZA Project] Kindaichi Shounen no Jikenbo Returns TV [01] [Saiko & Oni].mp4
Формат                                   : MPEG-4
Профиль формата                          : Base Media
Идентификатор кодека                     : isom
Размер файла                             : 326 Мбайт
Продолжительность                        : 24 м.
Режим общего битрейта                    : Переменный
Общий поток                              : 1884 Кбит/сек
Дата кодирования                         : UTC 2014-04-06 15:30:26
Дата пометки                             : UTC 2014-04-06 15:30:26
Программа кодирования                    : Yamb 2.1.0.0 [http://yamb.unite-video.com]

Видео
Идентификатор                            : 1
Формат                                   : AVC
Формат/Информация                        : Advanced Video Codec
Профиль формата                          : High@L4.1
Параметр CABAC формата                   : Да
Параметр ReFrames формата                : 4 кадра
Идентификатор кодека                     : avc1
Идентификатор кодека/Информация          : Advanced Video Coding
Продолжительность                        : 24 м.
Битрейт                                  : 1410 Кбит/сек
Максимальный битрейт                     : 17,2 Мбит/сек
Ширина                                   : 1280 пикселей
Высота                                   : 720 пикселей
Соотношение сторон                       : 16:9
Режим частоты кадров                     : Постоянный
Частота кадров                           : 23,976 кадра/сек
Цветовое пространство                    : YUV
Субдискретизация насыщенности            : 4:2:0
Битовая глубина                          : 8 бит
Тип развёртки                            : Прогрессивная
Бит/(Пиксели*Кадры)                      : 0.064
Размер потока                            : 244 Мбайт (75%)
Заголовок                                : www.Shiza-Project.com
Библиотека кодирования                   : x264 core 129 r2245+729M 1a52e03
Настройки программы                      : cabac=1 / ref=4 / deblock=1:1:-1 / analyse=0x3:0x113 / me=umh / subme=9 / psy=1 / fade_compensate=0.00 / psy_rd=1.00:0.00 / mixed_ref=1 / me_range=24 / chroma_me=1 / trellis=2 / 8x8dct=1 / cqm=0 / deadzone=21,11 / fast_pskip=1 / chroma_qp_offset=-2 / threads=8 / lookahead_threads=1 / sliced_threads=0 / nr=0 / decimate=1 / interlaced=0 / bluray_compat=0 / constrained_intra=0 / fgo=0 / bframes=9 / b_pyramid=2 / b_adapt=2 / b_bias=0 / direct=1 / weightb=1 / open_gop=0 / weightp=2 / keyint=240 / keyint_min=24 / scenecut=40 / intra_refresh=0 / rc=crf / mbtree=0 / crf=19.0 / qcomp=0.72 / qpmin=0 / qpmax=69 / qpstep=4 / ip_ratio=1.40 / pb_ratio=1.30 / aq=1:0.85
Дата кодирования                         : UTC 2014-04-05 15:36:33
Дата пометки                             : UTC 2014-04-06 15:30:56
colour_range                             : Limited
Основные цвета                           : BT.709
Характеристики трансфера                 : BT.709
Коэффициенты матрицы                     : BT.709

Аудио #1
Идентификатор                            : 2
Формат                                   : AAC
Формат/Информация                        : Advanced Audio Codec
Профиль формата                          : LC
Идентификатор кодека                     : 67
Продолжительность                        : 24 м.
Вид битрейта                             : Переменный
Битрейт                                  : 277 Кбит/сек
Максимальный битрейт                     : 330 Кбит/сек
Каналы                                   : 2 канала
Расположение каналов                     : Front: L R
Частота                                  : 48,0 КГц
Метод сжатия                             : С потерями
Размер потока                            : 47,9 Мбайт (15%)
Заголовок                                : Saiko & Oni
Язык                                     : Russian
Дата кодирования                         : UTC 2014-04-06 15:30:52
Дата пометки                             : UTC 2014-04-06 15:30:56

Аудио #2
Идентификатор                            : 3
Формат                                   : AAC
Формат/Информация                        : Advanced Audio Codec
Профиль формата                          : LC
Идентификатор кодека                     : 40
Продолжительность                        : 24 м.
Вид битрейта                             : Переменный
Битрейт                                  : 192 Кбит/сек
Максимальный битрейт                     : 218 Кбит/сек
Каналы                                   : 2 канала
Расположение каналов                     : Front: L R
Частота                                  : 48,0 КГц
Метод сжатия                             : С потерями
Размер потока                            : 33,2 Мбайт (10%)
Заголовок                                : JAP Original
Язык                                     : Japanese
Дата кодирования                         : UTC 2014-04-06 15:30:55
Дата пометки                             : UTC 2014-04-06 15:30:56

Смотреть Online

http://moonwalk.cc/video/95fca81d6f17b8d7/iframe
Детали торрента:
Название:Kindaichi Shounen no Jikenbo Returns / Kindaichi Case Files Returns / Дело ведёт юный детектив Киндаичи: Возвращение [2014, TV, 32 из 50] HDTVRip 720p raw+rus
Дата добавления:20 Дек 2015 18:12:50
Размер:10,3 GB
Раздают:
Качают:2
Форум:Онгоинги с озвучкой

All rights reserved © 2015-2018