TORRENTS43.COM

Скачать Акценты (04.10.2015) SATRip


Акценты (04.10.2015) SATRip
Телекомпания: НТВ
Жанр: Телепередача

Ведущий: Марат Сетдиков

Описание:
Воскресная информационная программа «Акценты». Расскажет о том, как развивались самые яркие события в стране и мире в течение прошедшей недели, и представит оперативные новости текущего дня.
Расставить акценты над самыми обсуждаемыми новостями недели зрителям поможет информация из первых уст – прямые включения свидетелей и непосредственных участников событий, а также реакция интернет-сообщества – твиты и видеоблоги, комментарии пользователей соцсетей.

В этом выпуске: Вы меня слышите: Сноуден выходит на связь. Родина помнит, родина знает: 7 фраз и уже 1,5 миллиона читателей. Новый бестселлер от Эдварда Сноудена. Живым или мертвым: где прячется симферопольский убийца? Человека с ружьем ищет весь полуостров.
Полмиллиона за поимку: кто идет по следу Бекира Набиева?


Продолжительность: 00:46:11
Качество видео: SATRip

Видео: Xvid, 720x448, ~1800 Кбит/сек
Аудио: MP3, 2 ch, 128 Кбит/сек, CBR

Mediainfo:

Код:

Общее
Полное имя                               : F:\видео\фильмы\Акценты\Akcenty.(2015.10.04).SATRip.avi
Формат                                   : AVI
Формат/Информация                        : Audio Video Interleave
Размер файла                             : 647 Мбайт
Продолжительность                        : 46 м.
Общий поток                              : 1938 Кбит/сек
Программа кодирования                    : VirtualDubMod 1.5.10.3 | www.virtualdub-fr.org || (build 2550/release)
Библиотека кодирования                   : VirtualDubMod build 2550/release

Видео
Идентификатор                            : 0
Формат                                   : MPEG-4 Visual
Профиль формата                          : Advanced Simple@L5
Параметр BVOP формата                    : 2
Параметр QPel формата                    : Нет
Параметр GMC формата                     : Без точки перехода
Параметр матрицы формата                 : Default (MPEG)
Идентификатор кодека                     : XVID
Идентификатор кодека/Подсказка           : XviD
Продолжительность                        : 46 м.
Битрейт                                  : 1800 Кбит/сек
Ширина                                   : 720 пикселей
Высота                                   : 448 пикселей
Соотношение сторон                       : 16:10
Частота кадров                           : 25,000 кадров/сек
Цветовое пространство                    : YUV
Субдискретизация насыщенности            : 4:2:0
Битовая глубина                          : 8 бит
Тип развёртки                            : Прогрессивная
Метод сжатия                             : С потерями
Бит/(Пиксели*Кадры)                      : 0.223
Размер потока                            : 601 Мбайт (93%)
Библиотека кодирования                   : XviD 1.2.1 (UTC 2008-12-04)

Аудио
Идентификатор                            : 1
Формат                                   : MPEG Audio
Версия формата                           : Version 1
Профиль формата                          : Layer 3
Режим                                    : Joint stereo
Идентификатор кодека                     : 55
Идентификатор кодека/Подсказка           : MP3
Продолжительность                        : 46 м.
Вид битрейта                             : Постоянный
Битрейт                                  : 128 Кбит/сек
Каналы                                   : 2 канала
Частота                                  : 48,0 КГц
Метод сжатия                             : С потерями
Размер потока                            : 42,7 Мбайт (7%)
Выравнивание                             : Соединение по промежуткам
Продолжительность промежутка             : 40  мс. (1,00 видеокадр)
Время предзагрузки промежутка            : 504  мс.
Библиотека кодирования                   : LAME3.99r
Настройки программы                      : -m j -V 4 -q 2 -lowpass 17 -b 128


Скриншоты:



Детали торрента:
Название:Акценты (04.10.2015) SATRip
Дата добавления:04 Окт 2015 13:34:29
Размер:647 MB
Раздают:
Качают:0
Форум:Тележурналистика

All rights reserved © 2015-2018