TORRENTS43.COM

Скачать Алексей Пахомов | Прибыльный автосервис (2015) PCRec [H.264/720p]


Алексей Пахомов | Прибыльный автосервис (2015) PCRec [H.264/720p]
Автор (режиссер): Алексей Пахомов
Название: Прибыльный автосервис
Жанр: Бизнес
Описание:
- В чем разница между бизнесом типа "сделай это сам" и настоящим бизнесом?
- Как определить свою цель?
- Как разложить цель на кирпичики и увидеть путь к ее достижению?
- Что мы продаем: услугу автосервиса или все-таки что-то другое?
- Как создать Уникальное Торговое Предложение?
- Интернет-сайт. Что в нем должно быть такого, без чего он просто не будет работать?
- По каким правилам создается макет сайта и кто должен это сделать?
- Как работать все меньше, а зарабатывать все больше и почему это возможно?
Ответы на все эти вопросы вы найдете в видеокурсе "Прибыльный автосервис"
Продолжительность: 4:29:43
Качество видео: PCRec
Видео: AVC, 1280x720, ~790 Kbps
Аудио: AAC, 2ch, 128Kbps, CBR

Mediainfo:

Код: выделить все
Общее

Формат                                   : MPEG-4
Профиль формата                          : Base Media
Идентификатор кодека                     : isom
Размер файла                             : 325 Мбайт
Продолжительность                        : 49 м.
Общий поток                              : 924 Кбит/сек
Программа кодирования                    : Lavf55.42.100

Видео
Идентификатор                            : 1
Формат                                   : AVC
Формат/Информация                        : Advanced Video Codec
Профиль формата                          : High@L3.1
Параметр CABAC формата                   : Да
Параметр ReFrames формата                : 4 кадра
Идентификатор кодека                     : avc1
Идентификатор кодека/Информация          : Advanced Video Coding
Продолжительность                        : 49 м.
Битрейт                                  : 790 Кбит/сек
Ширина                                   : 1280 пикселей
Высота                                   : 720 пикселей
Соотношение сторон                       : 16:9
Режим частоты кадров                     : Постоянный
Частота кадров                           : 25,000 кадров/сек
Цветовое пространство                    : YUV
Субдискретизация насыщенности            : 4:2:0
Битовая глубина                          : 8 бит
Тип развёртки                            : Прогрессивная
Бит/(Пиксели*Кадры)                      : 0.034
Размер потока                            : 278 Мбайт (86%)
Библиотека кодирования                   : x264 core 120 r2146 bcd41db
Язык                                     : Russian

Аудио
Идентификатор                            : 2
Формат                                   : AAC
Формат/Информация                        : Advanced Audio Codec
Профиль формата                          : LC
Идентификатор кодека                     : 40
Продолжительность                        : 49 м.
Вид битрейта                             : Постоянный
Битрейт                                  : 128 Кбит/сек
Каналы                                   : 2 канала
Расположение каналов                     : Front: L R
Частота                                  : 48,0 КГц
Метод сжатия                             : С потерями
Размер потока                            : 45,0 Мбайт (14%)
Язык                                     : Russian

Дополнительная информация:

В 2001 году я открыл небольшой автосервис, специализирующийся на диагностике двигателей. Первая эйфория быстро прошла, наступили рабочие будни. В то время мало кто занимался диагностикой, и очередь к нам растягивалась на несколько дней.

Но очень быстро все изменилось. Через несколько лет сервисов открылось много, клиенты куда-то пропали... Да и уставать я стал больше обычного. Вроде бы все делаю правильно, усердно работаю, но финансовый результат оставлял желать лучшего. Зимой клиентов было совсем мало, низкие цены и скидки уже не помогали. Ладно, решил я, буду работать еще больше и усерднее, оказывать больше услуг. Но как можно это сделать, когда нужно почитать интернет-форумы, закупить и привезти запчасти, заплатить налоги, отремонтировать отопление в боксе, дать рекламу, да еще и почистить снег на территории? И все это вроде бы мелочи, но от них никуда не деться...

Наступил момент, когда я понял, что нужно что-то менять. Накупил умных книг, начал читать и искать ответ на свой вопрос. Затем были занятия в "Бизнес-молодости". Два месяца коучинга в Москве: лекции, задания на неделю, итоговая аттестация.

Наконец, глаза открылись и я понял, что ремонтировать автомобили и вести автосервисный бизнес - это две большущие разницы!

Настало время поделиться с вами накопленным опытом.

В чем разница между бизнесом типа "сделай это сам" и настоящим бизнесом?
Как определить свою цель?
Как разложить цель на кирпичики и увидеть путь к ее достижению?
Что мы продаем: услугу автосервиса или все-таки что-то другое?
Как создать Уникальное Торговое Предложение?
Интернет-сайт. Что в нем должно быть такого, без чего он просто не будет работать?
По каким правилам создается макет сайта и кто должен это сделать?
Как работать все меньше, а зарабатывать все больше и почему это возможно?

Ответы на все эти вопросы вы найдете в видеокурсе "Прибыльный автосервис".
Скриншоты:




Детали торрента:
Название:Алексей Пахомов | Прибыльный автосервис (2015) PCRec [H.264/720p]
Дата добавления:09 Окт 2015 23:26:00
Размер:1,99 GB
Раздают:21
Качают:0
Форум:Другие

All rights reserved © 2015-2018