TORRENTS43.COM

Скачать Капитал / Le capital (2012) HDTV [H.264/1080i]


Капитал / Le capital (2012) HDTV [H.264/1080i]
Производство: Франция, K.G. Productions, France 2 Cinéma, Bureau, The, Cofinova 8
Жанр: Драма

Режиссер: Коста-Гаврас
Актеры: Гад Эльмалех, Гэбриел Бирн, Наташа Ренье, Селин Саллетт, Лия Кебеде, Ипполит Жирардо, Даниэль Месгиш, Ольга Грумберг, Бернар Ле Кок, Филипп Дюкло

Описание:
После того как директор банка "Феникс" падает во время игры в гольф его место занимает молодой амбициозный менеджер Марк Турнье. Сев в кресло главы крупнейшего французского банка, Турнье начинает доказывать, что он не марионетка, а полноценный президент, пытается лихо управлять финансовыми потоками и старается спасти банк от захвата американскими акционерами....



Продолжительность: 01:46:00
Качество видео: HDTV (1080i)
Перевод: Многоголосый закадровый (Первый канал)

Видео: AVC/H.264, 1920х1080, ~5533 kbps
Аудио 1: MP2, 2 ch, 48 kHz, 224 kbps (MVO, русский)
Аудио 2: АС3, 6 ch, 48 kHz, 384 kbps (MVO, русский)
Семпл: Скачать

Mediainfo:

Код:

Общее
Идентификатор                            : 16 (0x10)
Полное имя                               : Le capital_HD.ts
Формат                                   : MPEG-TS
Размер файла                             : 4,79 Гбайт
Продолжительность                        : 1 ч. 46 м.
Режим общего битрейта                    : Переменный
Общий поток                              : 6466 Кбит/сек

Видео
Идентификатор                            : 1902 (0x76E)
Идентификатор меню                       : 92 (0x5C)
Формат                                   : AVC
Формат/Информация                        : Advanced Video Codec
Профиль формата                          : High@L4.0
Параметр CABAC формата                   : Да
Параметр ReFrames формата                : 3 кадра
Идентификатор кодека                     : 27
Продолжительность                        : 1 ч. 46 м.
Битрейт                                  : 5533 Кбит/сек
Ширина                                   : 1920 пикселей
Высота                                   : 1080 пикселей
Соотношение сторон                       : 16:9
Частота кадров                           : 25,000 кадров/сек
Стандарт вещания                         : PAL
Цветовое пространство                    : YUV
Субдискретизация насыщенности            : 4:2:0
Битовая глубина                          : 8 бит
Тип развёртки                            : Чересстрочная
Порядок развёртки                        : Верхнее поле первое
Бит/(Пиксели*Кадры)                      : 0.107
Размер потока                            : 4,10 Гбайт (86%)
Основные цвета                           : BT.709
Характеристики трансфера                 : BT.709
Коэффициенты матрицы                     : BT.709

Аудио #1
Идентификатор                            : 2902 (0xB56)
Идентификатор меню                       : 92 (0x5C)
Формат                                   : MPEG Audio
Версия формата                           : Version 1
Профиль формата                          : Layer 2
Идентификатор кодека                     : 4
Продолжительность                        : 1 ч. 45 м.
Вид битрейта                             : Постоянный
Битрейт                                  : 224 Кбит/сек
Каналы                                   : 2 канала
Частота                                  : 48,0 КГц
Метод сжатия                             : С потерями
Задержка видео                           : 8 мс.
Размер потока                            : 170 Мбайт (3%)
Язык                                     : std
Язык, дополнительно                      : Clean effects

Аудио #2
Идентификатор                            : 3902 (0xF3E)
Идентификатор меню                       : 92 (0x5C)
Формат                                   : AC-3
Формат/Информация                        : Audio Coding 3
Расширение режима                        : CM (complete main)
Параметр Endianness формата              : Big
Идентификатор кодека                     : 6
Продолжительность                        : 1 ч. 45 м.
Вид битрейта                             : Постоянный
Битрейт                                  : 384 Кбит/сек
Каналы                                   : 6 каналов
Расположение каналов                     : Front: L C R, Side: L R, LFE
Частота                                  : 48,0 КГц
Битовая глубина                          : 16 бит
Метод сжатия                             : С потерями
Задержка видео                           : 14 мс.
Размер потока                            : 291 Мбайт (6%)
Язык                                     : std
Язык, дополнительно                      : Clean effects

Текст
Идентификатор                            : 33 (0x21)-100
Идентификатор меню                       : 92 (0x5C)
Формат                                   : Teletext

Меню
Идентификатор                            : 902 (0x386)
Идентификатор меню                       : 92 (0x5C)
Продолжительность                        : 1 ч. 46 м.
Список                                   : 1902 (0x76E) (AVC) / 2902 (0xB56) (MPEG Audio, std) / 3902 (0xF3E) (AC-3, std) / 33 (0x21) ()
Язык                                     :  / std / std

Рецензия, отзыв:

Капитал Коста-Гавраса

Марк Турнье, волей случая посаженный в главное кресло крупнейшего европейского Банка быть марионеткой, начинает лихо справляться с финансовыми потоками, завоевывая право быть полноценным президентом. В «Капитале» есть и острый сюжет для массового зрителя, и бэкграунд, для любящих поразмышлять интеллектуалов. Коста-Гаврас готов говорить с каждым о финансовом капитализме, властвующем в начале 21 века.

Сравнение с «Уолл Стрит: Деньги не спят», снятым двумя годами ранее, напрашивается само собой. Там тоже второй план был направлен на критику капитализма. Однако, если Оливер Стоун вложил свою политическую позицию прямо в уста героев, вынудив их рубить правду-матку прямо в лоб, то Коста-Гаврас выбирает более нейтральную дистанцию, оставляя зрителю пространство для интерпретаций.

Правда, подчас некоторые моменты выглядят труднодоступными для тех, кто еще до входа в кинозал не разделяет левые убеждения режиссера. Глубину переживаний дяди, отчитывающего главного героя на семейном ужине, вряд ли сможет оценить зритель, не эрудированный историей левого движения середины 20 века. Да и когда жена подсказывает Марку его первый шаг на посту CEO, мало просто знать, кто такой Мао.

В интеллектуальном пласте фильма 3 ключевых момента.

Первое. Коста-Гаврас художественными средствами предпринимает атаку на образ респектабельности финансовой элиты. Показывает, как из-за бесконтрольности акционеров их жадность и ошибки вынуждены оплачивать все остальные. Сотрудники банка теряют работу, не смотря на всю преданность и объективную пользу компании. Клиенты и общество в целом страдают из-за несущих разрушения кризисов, стимулируемых акционерами, зарабатывающих на понижении котировок ничуть не хужу, чем на росте.

Второе. Эволюция личности главного героя. Из-за неожиданного скачка в карьере, Марк вынужден отказаться от близких отношений. Друзья по работе, действуя ровно в той же логике, что и главный герой, могут в любой момент вместо поддержки Марка выбрать альтернативу, сулящее большее денежное вознаграждение. Марк постепенно отдаляется и от семьи с родственниками. Опасаясь быть использованным, из-за свалившегося на него богатства, он предпочитает даже превентивно пресекать разговоры родных о деньгах.

Главный герой отдает себе отчет, в том, что с ним происходит и к чему это может привести. Ему ненавистна в будущем роль одного из вкладчиков пенсионного фонда, «современных работорговцев», — как говорит Марк. Режиссер даже подчеркивает рефлексию главного героя отдельным художественным приемом: когда Марк принимает важные решения, нам показывают возможные альтернативы, которые он хотел бы выбрать.

Однако, не смотря на весь ум и желания, главный герой может лишь отдаться невидимой стихии рынка. Чтобы подчеркнуть силу несущего главного героя течения, режиссер даже единственный раз сбивается на нотацию, вкладывая в уста одного из акционеров размышление, что деньги — не средства, а повелитель, награждающий за верное служение.

Третье. Взаимоотношение с женщинами. Линия эволюции личности главного героя, которую стоит выделить отдельно. Коста-Гаврас предлагает своему главному герою на выбор 3 модели: классическую семью, беззаботную полигамию и эгалитарные отношения. Конечно, в реальной жизни каждый из банкиров делает для себя выбор самостоятельно. Однако, художественный герой не склоняется ни к одному из полюсов. Режиссеру важно продемонстрировать, что конец у главного героя один. Доверяя себя полностью власти рыночной конъюнктуре, Марк сознательно превращается в эмоционального инвалида, постепенно самостоятельно отрезая от себя кусочки сердца и отдаляясь от близких людей.

К сожалению, под конец ленты весь критический запал становится похож на бессильное бурчание левого интеллектуала. Пожалуй, тут нет вины Коста-Гавроса — скорее это знак эпохи. Оливер Стоун, вообще, финальную сцену своего фильма откровенно запорол. Видимо западные левые интеллектуалы все никак не могут оправиться от разгромной победы, которую по итогам мирового экономического кризиса банкиры одержали над всем остальным обществом 5 лет назад. Что, все же, не мешает снимать изысканные фильмы, пусть и навевающие грусть после титров своим пораженческим настроем.
Скриншоты:


Смотреть Online

http://moonwalk.cc/video/f6df3c0f364a7d43/iframe
Детали торрента:
Название:Капитал / Le capital (2012) HDTV [H.264/1080i]
Дата добавления:18 Окт 2015 12:32:34
Размер:4,79 GB
Раздают:
Качают:0
Форум:Зарубежные Фильмы (HD, UHD-LQ)

All rights reserved © 2015-2018