TORRENTS43.COM

Скачать Lem Winchester and the Ramsey Lewis Trio - Perform A Tribute To Clifford Brown (1958) /1997, Argo/[FLAC|tracks+.cue]<Hard Bop>


Lem Winchester and the Ramsey Lewis Trio - Perform A Tribute To Clifford Brown (1958) /1997, Argo/
Год: 1997
Год записи: 1958
Жанр: Hard Bop
Продолжительность: 00:35:50

Кодек: FLAC (tracks+.cue)
Битрейт: Lossless
Источник (релизер): mishka1981

Издатель (лейбл): Argo
Номер по каталогу: MVCJ-19014
Страна-производитель диска: Japan
Наличие сканов в содержимом раздачи: да

Треклист:

01.Joy Spring [03:28]
02.Where It Is [04:33]
03.Sandu [06:16]
04.Once In A While [05:33]
05.Jordu [03:28]
06.It Could Happen To You [03:44]
07.Easy To Love [03:39]
08.A Message From Boysie [05:11]

Отчёт ЕАС:

Код:

Exact Audio Copy V1.0 beta 1 from 15. November 2010

EAC extraction logfile from 29. June 2012, 0:19

Lem Winchester & The Ramsey Lewis Trio / Perform A Tribute To Clifford Brown

Used drive  : Optiarc DVD RW AD-7710H   Adapter: 1  ID: 0

Read mode               : Secure
Utilize accurate stream : Yes
Defeat audio cache      : Yes
Make use of C2 pointers : No

Read offset correction                      : 48
Overread into Lead-In and Lead-Out          : No
Fill up missing offset samples with silence : Yes
Delete leading and trailing silent blocks   : No
Null samples used in CRC calculations       : Yes
Used interface                              : Native Win32 interface for Win NT & 2000
Gap handling                                : Appended to previous track

Used output format              : User Defined Encoder
Selected bitrate                : 896 kBit/s
Quality                         : High
Add ID3 tag                     : No
Command line compressor         : C:\Program Files\Exact Audio Copy\FLAC\FLAC.EXE
Additional command line options : -8 -V -T "ARTIST=%a" -T "TITLE=%t" -T "ALBUM=%g" -T "DATE=%y" -T "TRACKNUMBER=%n" -T "GENRE=%m" -T "COMMENT=%e" %j--picture="%i"%j %s -o %d

TOC of the extracted CD

     Track |   Start  |  Length  | Start sector | End sector
    ---------------------------------------------------------
        1  |  0:00.37 |  3:27.55 |        37    |    15616
        2  |  3:28.17 |  4:32.70 |     15617    |    36086
        3  |  8:01.12 |  6:15.70 |     36087    |    64281
        4  | 14:17.07 |  5:32.28 |     64282    |    89209
        5  | 19:49.35 |  3:27.65 |     89210    |   104799
        6  | 23:17.25 |  3:43.27 |    104800    |   121551
        7  | 27:00.52 |  3:38.48 |    121552    |   137949
        8  | 30:39.25 |  5:10.17 |    137950    |   161216

Track  1

     Filename C:\MY RIPS\01 - Joy Spring.wav

     Pre-gap length  0:00:02.37

     Peak level 94.1 %
     Extraction speed 2.6 X
     Track quality 100.0 %
     Test CRC 259DA5D6
     Copy CRC 259DA5D6
     Accurately ripped (confidence 1)  [F90F862D]
     Copy OK

Track  2

     Filename C:\MY RIPS\02 - Where It Is.wav

     Pre-gap length  0:00:02.34

     Peak level 94.0 %
     Extraction speed 2.6 X
     Track quality 99.9 %
     Test CRC 48F90E3D
     Copy CRC 48F90E3D
     Accurately ripped (confidence 1)  [B8B12A18]
     Copy OK

Track  3

     Filename C:\MY RIPS\03 - Sandu.wav

     Pre-gap length  0:00:02.34

     Peak level 94.0 %
     Extraction speed 3.5 X
     Track quality 100.0 %
     Test CRC 204DD29A
     Copy CRC 204DD29A
     Accurately ripped (confidence 1)  [3F45C8E6]
     Copy OK

Track  4

     Filename C:\MY RIPS\04 - Once In A While.wav

     Pre-gap length  0:00:02.34

     Peak level 87.6 %
     Extraction speed 3.3 X
     Track quality 99.9 %
     Test CRC 06E71465
     Copy CRC 06E71465
     Accurately ripped (confidence 1)  [B8846CBA]
     Copy OK

Track  5

     Filename C:\MY RIPS\05 - Jordu.wav

     Pre-gap length  0:00:02.32

     Peak level 94.0 %
     Extraction speed 3.1 X
     Track quality 99.9 %
     Test CRC 1BD42282
     Copy CRC 1BD42282
     Accurately ripped (confidence 1)  [C8A0C606]
     Copy OK

Track  6

     Filename C:\MY RIPS\06 - It Could Happen To You.wav

     Pre-gap length  0:00:02.32

     Peak level 94.0 %
     Extraction speed 4.1 X
     Track quality 100.0 %
     Test CRC 22510BE9
     Copy CRC 22510BE9
     Accurately ripped (confidence 1)  [55AECC75]
     Copy OK

Track  7

     Filename C:\MY RIPS\07 - Easy To Love.wav

     Pre-gap length  0:00:02.31

     Peak level 94.0 %
     Extraction speed 4.2 X
     Track quality 100.0 %
     Test CRC 68D0E1B7
     Copy CRC 68D0E1B7
     Accurately ripped (confidence 1)  [5F7DD675]
     Copy OK

Track  8

     Filename C:\MY RIPS\08 - A Message From Boysie.wav

     Pre-gap length  0:00:02.64

     Peak level 93.1 %
     Extraction speed 4.7 X
     Track quality 100.0 %
     Test CRC 3B068550
     Copy CRC 3B068550
     Accurately ripped (confidence 1)  [61647125]
     Copy OK

All tracks accurately ripped

No errors occurred

End of status report

==== Log checksum 2CD384868F985E9D3502138B5A2F25B389CFD8C10E0C42FB4BA76CD6F56CF0C8 ====

Отчёт auCDtect Task manager:

Код:

-----------------------

DON'T MODIFY THIS FILE

-----------------------

PERFORMER: auCDtect Task Manager, ver. 1.6.0 RC1 build 1.6.0.1
Copyright (c) 2008-2010 y-soft. All rights reserved
http://y-soft.org

ANALYZER: auCDtect: CD records authenticity detector, version 0.8.2
Copyright (c) 2004 Oleg Berngardt. All rights reserved.
Copyright (c) 2004 Alexander Djourik. All rights reserved.

FILE: 08 - A Message From Boysie.flac
  Size: 23374532 Hash: D1C0CCA34A55940F2D9B4FFB438D030B Accuracy: -m0
  Conclusion: CDDA 100%
  Signature: 86D3B8EB4738012187A900B309CA9210EE66D081
FILE: 07 - Easy To Love.flac
  Size: 17430617 Hash: F8AD46B5E123546A15F498C8885E5963 Accuracy: -m0
  Conclusion: CDDA 100%
  Signature: DB49C789E3A73FBAB7F0F6C77D7F81EF37718D10
FILE: 06 - It Could Happen To You.flac
  Size: 18431790 Hash: C35C03E02FC7E9F4D8C6F579CE0571D2 Accuracy: -m0
  Conclusion: CDDA 100%
  Signature: D6DB7EE49AC1983CF6442DF6C590F31BF88FD95C
FILE: 05 - Jordu.flac
  Size: 16306370 Hash: EC54147163553E958F0848FE4BED4776 Accuracy: -m0
  Conclusion: CDDA 100%
  Signature: 0C90C2A3002E7FA5E43E9C22C87CD0006D7AB416
FILE: 04 - Once In A While.flac
  Size: 25052296 Hash: C4925FF6878CFF876001DCCB89C545DC Accuracy: -m0
  Conclusion: CDDA 100%
  Signature: 1256EFC0EE74304E7C5513ED976A8B77941FB9BD
FILE: 03 - Sandu.flac
  Size: 31133520 Hash: 87C0E1C2B0C88B07C91AE2FC0D235D79 Accuracy: -m0
  Conclusion: CDDA 100%
  Signature: 32AD3498371B359942E8A75A8A955187A7BBE8D3
FILE: 02 - Where It Is.flac
  Size: 24336054 Hash: 52BAA8D64E6D85CF774DD0E5A9B7DFA5 Accuracy: -m0
  Conclusion: CDDA 100%
  Signature: 75333F7C0D15194F7ABED571A12B7DA7F8BF91AC
FILE: 01 - Joy Spring.flac
  Size: 17366546 Hash: 68B6C1FDE4D691B68CCE9A81D331D105 Accuracy: -m0
  Conclusion: CDDA 100%
  Signature: 1EA63821D2642B5FE7899F6548C1F781DBD2EC15

Содержание индексной карты (.CUE)

Код:

REM GENRE Jazz
REM DISCID 65086508
REM COMMENT "ExactAudioCopy v1.0b1"
PERFORMER "Lem Winchester & The Ramsey Lewis Trio"
TITLE "Perform A Tribute To Clifford Brown"
FILE "01 - Joy Spring.wav" WAVE
  TRACK 01 AUDIO
    TITLE "Joy Spring"
    PERFORMER "Lem Winchester & The Ramsey Lewis Trio"
    PREGAP 00:00:37
    INDEX 01 00:00:00
  TRACK 02 AUDIO
    TITLE "Where It Is"
    PERFORMER "Lem Winchester & The Ramsey Lewis Trio"
    INDEX 00 03:25:21
FILE "02 - Where It Is.wav" WAVE
    INDEX 01 00:00:00
  TRACK 03 AUDIO
    TITLE "Sandu"
    PERFORMER "Lem Winchester & The Ramsey Lewis Trio"
    INDEX 00 04:30:36
FILE "03 - Sandu.wav" WAVE
    INDEX 01 00:00:00
  TRACK 04 AUDIO
    TITLE "Once In A While"
    PERFORMER "Lem Winchester & The Ramsey Lewis Trio"
    INDEX 00 06:13:36
FILE "04 - Once In A While.wav" WAVE
    INDEX 01 00:00:00
  TRACK 05 AUDIO
    TITLE "Jordu"
    PERFORMER "Lem Winchester & The Ramsey Lewis Trio"
    INDEX 00 05:29:71
FILE "05 - Jordu.wav" WAVE
    INDEX 01 00:00:00
  TRACK 06 AUDIO
    TITLE "It Could Happen To You"
    PERFORMER "Lem Winchester & The Ramsey Lewis Trio"
    INDEX 00 03:25:33
FILE "06 - It Could Happen To You.wav" WAVE
    INDEX 01 00:00:00
  TRACK 07 AUDIO
    TITLE "Easy To Love"
    PERFORMER "Lem Winchester & The Ramsey Lewis Trio"
    INDEX 00 03:40:71
FILE "07 - Easy To Love.wav" WAVE
    INDEX 01 00:00:00
  TRACK 08 AUDIO
    TITLE "A Message From Boysie"
    PERFORMER "Lem Winchester & The Ramsey Lewis Trio"
    INDEX 00 03:35:59
FILE "08 - A Message From Boysie.wav" WAVE
    INDEX 01 00:00:00

Состав

Lem Winchester - vibes
Ramsey Lewis - piano
Eldee Young - bass
Red Holt - drums




Поглощение/вытеснение
Только с согласия релизера

gvm55

Детали торрента:
Название:Lem Winchester and the Ramsey Lewis Trio - Perform A Tribute To Clifford Brown (1958) /1997, Argo/[FLAC|tracks+.cue]<Hard Bop>
Дата добавления:18 Окт 2015 13:02:33
Размер:168 MB
Раздают:3
Качают:0
Форум:Jazz (Lossless)

All rights reserved © 2015-2018