TORRENTS43.COM

Скачать Ricky Martin - Sound Loaded (2000) [FLAC|image + .cue]<Pop, Latin>


Ricky Martin - Sound Loaded (2000)
Год: 2000
Жанр: Pop/Latin
Продолжительность: 01:04:50

Кодек: FLAC
Битрейт: Lossless
Тип рипа: image + .cue
Источник (релизер): andreas1963
Издание: COLUMBIA - 4977692

Треклист:
1. She Bangs (English Version)
2. Saint Tropez
3. Come To Me
4. Loaded
5. Nobody Wants To Be Lonely
6. Amor
7. Jezabel
8. The Touch
9. One Night Man
10. She Bangs (Spanish Version)
11. Are You In It For Love
12. Ven A Mi (Come To Me)
13. If You Ever Saw Her
14. Dame Mas (Loaded)
15. Cambia La Piel

Отчёт ЕАС:

Код:

Exact Audio Copy V1.1 from 23. June 2015

EAC extraction logfile from 10. November 2015, 21:10

Ricky Martin / Ricky Martin   Sound Loaded

Used drive  : PLEXTOR DVDR   PX-810SA   Adapter: 1  ID: 1

Read mode               : Secure
Utilize accurate stream : Yes
Defeat audio cache      : Yes
Make use of C2 pointers : No

Read offset correction                      : 48
Overread into Lead-In and Lead-Out          : No
Fill up missing offset samples with silence : Yes
Delete leading and trailing silent blocks   : No
Null samples used in CRC calculations       : Yes
Used interface                              : Native Win32 interface for Win NT & 2000

Used output format              : User Defined Encoder
Selected bitrate                : 1024 kBit/s
Quality                         : High
Add ID3 tag                     : No
Command line compressor         : C:\Program Files\Flac\flac.exe
Additional command line options : -8 -V -T "ARTIST=%artist%" -T "TITLE=%title%" -T "ALBUM=%albumtitle%" -T "DATE=%year%" -T "TRACKNUMBER=%tracknr%" -T "GENRE=%genre%" -T "COMMENT=%comment%" -T "BAND=%albuminterpret%" -T "ALBUMARTIST=%albuminterpret%" -T "COMPOSER=%composer%" %haslyrics%--tag-from-file=LYRICS="%lyricsfile%"%haslyrics% -T "DISCNUMBER=%cdnumber%" -T "TOTALDISCS=%totalcds%" -T "TOTALTRACKS=%numtracks%" %hascover%--picture="%coverfile%"%hascover% %source% -o %dest%

TOC of the extracted CD

     Track |   Start  |  Length  | Start sector | End sector
    ---------------------------------------------------------
        1  |  0:00.00 |  4:41.60 |         0    |    21134
        2  |  4:41.60 |  4:48.55 |     21135    |    42789
        3  |  9:30.40 |  4:33.57 |     42790    |    63321
        4  | 14:04.22 |  3:53.13 |     63322    |    80809
        5  | 17:57.35 |  5:05.25 |     80810    |   103709
        6  | 23:02.60 |  3:27.02 |    103710    |   119236
        7  | 26:29.62 |  3:49.38 |    119237    |   136449
        8  | 30:19.25 |  4:27.25 |    136450    |   156499
        9  | 34:46.50 |  3:48.67 |    156500    |   173666
       10  | 38:35.42 |  4:37.03 |    173667    |   194444
       11  | 43:12.45 |  4:06.52 |    194445    |   212946
       12  | 47:19.22 |  4:34.10 |    212947    |   233506
       13  | 51:53.32 |  3:49.65 |    233507    |   250746
       14  | 55:43.22 |  3:53.23 |    250747    |   268244
       15  | 59:36.45 |  5:13.55 |    268245    |   291774

Range status and errors

Selected range

     Filename D:\Музыка\Раздачи\Ricky Martin\Ricky Martin - Sound Loaded (2000)\Ricky Martin - Ricky Martin   Sound Loaded.wav

     Peak level 99.8 %
     Extraction speed 7.7 X
     Range quality 100.0 %
     Test CRC C1BA28AF
     Copy CRC C1BA28AF
     Copy OK

No errors occurred

AccurateRip summary

Track  1  accurately ripped (confidence 76)  [BA511810]  (AR v2)
Track  2  accurately ripped (confidence 76)  [3848166E]  (AR v2)
Track  3  accurately ripped (confidence 76)  [617529C2]  (AR v2)
Track  4  accurately ripped (confidence 76)  [C5BA5158]  (AR v2)
Track  5  accurately ripped (confidence 75)  [AAD8EB77]  (AR v2)
Track  6  accurately ripped (confidence 76)  [8532A033]  (AR v2)
Track  7  accurately ripped (confidence 75)  [65132968]  (AR v2)
Track  8  accurately ripped (confidence 76)  [3D267CFD]  (AR v2)
Track  9  accurately ripped (confidence 75)  [1C66FA19]  (AR v2)
Track 10  accurately ripped (confidence 74)  [5E2C229D]  (AR v2)
Track 11  accurately ripped (confidence 76)  [9B8BBE01]  (AR v2)
Track 12  accurately ripped (confidence 74)  [680500AF]  (AR v2)
Track 13  accurately ripped (confidence 73)  [B7B52765]  (AR v2)
Track 14  accurately ripped (confidence 72)  [68CE5CAF]  (AR v2)
Track 15  accurately ripped (confidence 67)  [E45A012E]  (AR v2)

All tracks accurately ripped

End of status report

---- CUETools DB Plugin V2.1.6

[CTDB TOCID: iYrKj9SFxC9cvFx_I_SLIvPP2vw-] found
Submit result: already submitted, already submitted
Track | CTDB Status
  1   | (144/146) Accurately ripped
  2   | (145/146) Accurately ripped
  3   | (144/146) Accurately ripped
  4   | (145/146) Accurately ripped
  5   | (145/146) Accurately ripped
  6   | (145/146) Accurately ripped
  7   | (145/146) Accurately ripped
  8   | (145/146) Accurately ripped
  9   | (145/146) Accurately ripped
 10   | (145/146) Accurately ripped
 11   | (144/146) Accurately ripped
 12   | (144/146) Accurately ripped
 13   | (145/146) Accurately ripped
 14   | (145/146) Accurately ripped
 15   | (142/146) Accurately ripped

==== Log checksum 30EFE6EC2B6A627B38CF348EC1399BD4DDFE3374D2D60B0FE8813E059CAB7276 ====

Отчёт auCDtect Task manager:

Код:

-----------------------

DON'T MODIFY THIS FILE

-----------------------

PERFORMER: auCDtect Task Manager, ver. 1.6.0 RC1 build 1.6.0.1
Copyright (c) 2008-2010 y-soft. All rights reserved
http://y-soft.org

ANALYZER: auCDtect: CD records authenticity detector, version 0.8.2
Copyright (c) 2004 Oleg Berngardt. All rights reserved.
Copyright (c) 2004 Alexander Djourik. All rights reserved.

FILE: Ricky Martin - Ricky Martin   Sound Loaded.flac
  Size: 515412333 Hash: 98AC20AD7CB73AFCCCBF02267EEA78FD Accuracy: -m0
  Conclusion: CDDA 100%
  Signature: 2D6DA1868BD02BB854859DBAD7E50577144B1FA9
Детали торрента:
Название:Ricky Martin - Sound Loaded (2000) [FLAC|image + .cue]<Pop, Latin>
Дата добавления:12 Ноя 2015 20:16:27
Размер:621 MB
Раздают:
Качают:0
Форум:Зарубежная поп-музыка (Lossless)

All rights reserved © 2015-2018