TORRENTS43.COM

Скачать Александр Заморин | Креатив 4.0 + Реактивный старт в фотографии 2.0 (2015) PCRec [H.264]


Александр Заморин | Креатив 4.0 + Реактивный старт в фотографии 2.0 (2015) PCRec [H.264]
Автор (режиссер): Александр Заморин
Жанр: фотография

Описание:
Что бы вы сказали, если бы у вас появился реальный шанс перестать блуждать с одного обучения на другое и уже начать делать те самые фотографии, которые с восторгом и "на ура" воспринимаются широкой публикой?
Ведь вас до этого учили, что главное - это искусное владение настройками фотоаппарата и законами композиции, не так ли?

А что, если ни то ни другое у вас не идеально?
Что, если вы уже прошли несколько курсов по фотоделу, однако ваши фотографии по прежнему далеки от тех, которыми вы восхищаетесь сами?
Как быть с этим?
Спросите себя, почему одни фотолюбители с двух-трёхлетним опытом запросто становятся высокооплачиваемыми фотографами, в то время как другие могут учиться всю жизнь и при этом развиваться медленно?

Знания они ведь получают одни и те же. А в чём тогда разница?
Вам достаточно просто зайти в профессиональную социальную сеть и посмотреть в графу "стаж" у ряда профессиональных фотографов, чтобы убедиться в вышесказанном....
А также вы убедитесь в том, что в фундаменте любой удачной фотографии лежит креативная идея и только потом технические навыки и другая штукатурка.
И секрет в том, что вы тоже можете делать снимки не хуже чем у них - было бы желание!

Продолжительность: 05:12:27
Качество видео: PCRec

Видео: AVC/H.264, 1200х900, ~1158 Kbps
Аудио: AAC, 2 ch, 93.6 Kbps

Mediainfo:

Код:

General
Complete name                            : D:\Downloads\Kursi\Kreativ_4.0\1-2.mp4
Format                                   : MPEG-4
Format profile                           : Base Media / Version 2
Codec ID                                 : mp42
File size                                : 68.9 MiB
Duration                                 : 7mn 41s
Overall bit rate                         : 1 254 Kbps
Encoded date                             : UTC 2015-06-11 10:37:17
Tagged date                              : UTC 2015-06-11 10:37:17

Video
ID                                       : 1
Format                                   : AVC
Format/Info                              : Advanced Video Codec
Format profile                           : High@L4.0
Format settings, CABAC                   : Yes
Format settings, ReFrames                : 4 frames
Codec ID                                 : avc1
Codec ID/Info                            : Advanced Video Coding
Duration                                 : 7mn 41s
Source duration                          : 7mn 41s
Bit rate                                 : 1 158 Kbps
Width                                    : 1 200 pixels
Height                                   : 900 pixels
Display aspect ratio                     : 4:3
Frame rate mode                          : Constant
Frame rate                               : 15.000 fps
Color space                              : YUV
Chroma subsampling                       : 4:2:0
Bit depth                                : 8 bits
Scan type                                : Progressive
Bits/(Pixel*Frame)                       : 0.071
Stream size                              : 63.7 MiB (92%)
Source stream size                       : 63.7 MiB (92%)
Language                                 : English
Encoded date                             : UTC 2015-06-11 10:37:17
Tagged date                              : UTC 2015-06-11 10:37:17
Color primaries                          : BT.709
Transfer characteristics                 : BT.709
Matrix coefficients                      : BT.709
mdhd_Duration                            : 461240

Audio
ID                                       : 2
Format                                   : AAC
Format/Info                              : Advanced Audio Codec
Format profile                           : LC
Codec ID                                 : 40
Duration                                 : 7mn 41s
Source duration                          : 7mn 41s
Bit rate mode                            : Constant
Bit rate                                 : 93.6 Kbps
Channel(s)                               : 2 channels
Channel positions                        : Front: L R
Sampling rate                            : 44.1 KHz
Compression mode                         : Lossy
Stream size                              : 5.15 MiB (7%)
Source stream size                       : 5.15 MiB (7%)
Language                                 : English
Encoded date                             : UTC 2015-06-11 10:37:17
Tagged date                              : UTC 2015-06-11 10:37:17
mdhd_Duration                            : 461241
Скриншоты:


Детали торрента:
Название:Александр Заморин | Креатив 4.0 + Реактивный старт в фотографии 2.0 (2015) PCRec [H.264]
Дата добавления:15 Ноя 2015 11:18:07
Размер:3,28 GB
Раздают:13
Качают:0
Форум:Фотография, Видео

All rights reserved © 2015-2018