TORRENTS43.COM

Скачать Сверхъестественное / Supernatural (2011) BDRip [H.264/1080p] (сезон 7, серии 1-23 из 23) Кравец


Сверхъестественное / Supernatural (2011) BDRip [H.264/1080p] (сезон 7, серии 1-23 из 23)
Производство: USA / Kripke Enterprises, Warner Bros. Pictures Co., Warner Bros. Television, Wonderland Sound and Vision
Жанр: драма, фэнтези, ужасы, триллер

Режиссер: Роберт Сингер
Актеры: Джаред Падалеки, Дженсен Эклс, Джим Бивер, Миша Коллинз, Джеффри Дин Морган, Женевьев Падалеки, Саманта Феррис, Курт Фуллер, Кэти Кэссиди, Лорен Коэн и др.

Описание:
Сериал повествует о двух братьях — охотниках за нечистью, которые путешествуют по Соединённым Штатам Америки на чёрной Chevrolet Impala 1967 года, расследуя паранормальные явления, многие из которых основаны на городских легендах и фольклоре, а также сражаются с порождениями зла: демонами, призраками и другой нечистью.



Продолжительность: ~00:42:00 серия
Качество видео: BDRip
Перевод: Дублированный - Кравец

Видео: AVC/H.264, 1920x1080 (16:9), ~15.6 Mbps
Аудио: MP3, 2 ch, 256-320 kbps, CBR - дублированный

Mediainfo:

Код:

D:\Фильмы\Сериалы\Сверхъестественное\Сверхъестественное [7 Сезон (2011-2012)]\Сверхъестественное [7Сезон(2011-2012)]\Серия  (1)[Встречайте нового босса].mkv
   General
      Unique ID : 184939657359502621363677702986120300741 (0x8B221518410C6E59B3D8CFC129D808C5)
      Complete name : D:\Фильмы\Сериалы\Сверхъестественное\Сверхъестественное [7 Сезон (2011-2012)]\Сверхъестественное [7Сезон(2011-2012)]\Серия  (1)[Встречайте нового босса].mkv
      Format : Matroska
      Format version : Version 4 / Version 2
      File size : 4.81 GiB
      Duration : 42mn 20s
      Overall bit rate mode : Variable
      Overall bit rate : 16.3 Mbps
      Encoded date : UTC 2015-08-24 22:15:47
      Writing application : mkvmerge v6.1.0 ('Old Devil') built on Mar  4 2013 09:10:42
      Writing library : libebml v1.3.0 + libmatroska v1.4.0
   Video #1
      ID : 1
      Format : AVC
      Format/Info : Advanced Video Codec
      Format profile : High@L4.0
      Format settings, CABAC : Yes
      Format settings, ReFrames : 2 frames
      Codec ID : V_MPEG4/ISO/AVC
      Duration : 42mn 20s
      Bit rate mode : Variable
      Bit rate : 15.6 Mbps
      Width : 1 920 pixels
      Height : 1 080 pixels
      Display aspect ratio : 16:9
      Frame rate mode : Constant
      Frame rate : 23.976 fps
      Color space : YUV
      Chroma subsampling : 4:2:0
      Bit depth : 8 bits
      Scan type : Progressive
      Bits/(Pixel*Frame) : 0.314
      Stream size : 4.62 GiB (96%)
      Language : English
      Default : Yes
      Forced : No
   Audio #2
      ID : 2
      Format : MPEG Audio
      Format version : Version 1
      Format profile : Layer 3
      Mode : Joint stereo
      Codec ID : A_MPEG/L3
      Codec ID/Hint : MP3
      Duration : 42mn 20s
      Bit rate mode : Constant
      Bit rate : 320 Kbps
      Channel(s) : 2 channels
      Sampling rate : 44.1 KHz
      Compression mode : Lossy
      Stream size : 96.9 MiB (2%)
      Title : Профессиональный,Дублированный [Автор синхрона - eston]
      Writing library : LAME3.98.4
      Language : Russian
      Default : Yes
      Forced : No
Скриншоты:


Все релизы сериала "Сверхъестественное / Supernatural" на Torrents43.com

Смотреть Online

http://moonwalk.cc/video/2a49a22bf3961645/iframe
Детали торрента:
Название:Сверхъестественное / Supernatural (2011) BDRip [H.264/1080p] (сезон 7, серии 1-23 из 23) Кравец
Дата добавления:16 Дек 2015 12:46:41
Размер:78,8 GB
Раздают:
Качают:0
Форум:Архив Сериалов

All rights reserved © 2015-2018