TORRENTS43.COM

Скачать Монстры на каникулах 2 / Hotel Transylvania 2 (2015) BDRip 3D [AVC/H.264/1080p] [Вертикальная анаморфная стереопара]


Монстры на каникулах 2 / Hotel Transylvania 2 (2015) BDRip 3D [AVC/H.264/1080p] «Drac's pack is back»
Производство: США, Columbia Pictures, LStar Capital, Sony Pictures Animation, Sony Pictures Digital, Sony Pictures Imageworks
Жанр: Мультфильм, Фэнтези, Комедия, Семейный

Режиссер: Генндий Тартаковский
Персонажи: Адам Сэндлер, Энди Сэмберг, Селена Гомес, Кевин Джеймс, Стив Бушеми, Дэвид Спейд, Кигэн-Майкл Ки, Эшер Блинкофф, Фрэн Дрешер, Молли Шеннон

Описание:
Граф Дракула выдает свою очаровательную дочь замуж за парня из мира людей, и у молодой «смешанной» пары рождается сын. Станет ли этот ребенок человеком или вампиром?


Дата мировой премьеры: 21 сентября 2015
Дата премьеры в России: 22 октября 2015, «WDSSPR»
Дата выхода DVD/Blu-ray релиза: 21 января 2016, «CP Дистрибуция»

Продолжительность: 01:29:18
Качество видео: BDRip
Перевод: Дублированный (iTunes)
Язык субтитров: Русский (форсированные)
Вид субтитров: Вшитые отключаемые / Отдельным файлом

Видео: AVC/H.264, 1920x1080, ~8233 Кбит/сек
Аудио 1: AC3 5.1 384 Кбит/сек - Русский
Аудио 2: AC3 2.0 192 Кбит/сек - Украинский
Аудио 3: AC3 5.1 640 Кбит/сек - Английский

Mediainfo:

Код: выделить все

Общее
Уникальный идентификатор                 : 195456420030346415902810907367525920274 (0x930B8986FB7BD0FEB5C00457CCD92E12)
Полное имя                               : J:\temp\Hotel_Transylvania_2_3D\Hotel_Transylvania_2_3D.mkv
Формат                                   : Matroska
Версия формата                           : Version 2
Размер файла                             : 6,01 Гбайт
Продолжительность                        : 1 ч. 29 м.
Общий поток                              : 9641 Кбит/сек
Название фильма                          : Hotel_Transylvania_2_3D_Half_O/U
Дата кодирования                         : UTC 2015-12-28 16:25:25
Программа кодирования                    : mkvmerge v5.6.0 ('Kenya Kane') built on Jun 29 2012 15:01:44
Библиотека кодирования                   : libebml v1.2.3 + libmatroska v1.3.0

Видео
Идентификатор                            : 1
Формат                                   : AVC
Формат/Информация                        : Advanced Video Codec
Профиль формата                          : High@L4.1
Параметр CABAC формата                   : Да
Параметр ReFrames формата                : 4 кадра
Идентификатор кодека                     : V_MPEG4/ISO/AVC
Продолжительность                        : 1 ч. 29 м.
Битрейт                                  : 8233 Кбит/сек
Ширина                                   : 1920 пикселей
Высота                                   : 1080 пикселей
Соотношение сторон                       : 16:9
Режим частоты кадров                     : Постоянный
Частота кадров                           : 23,976 кадра/сек
Цветовое пространство                    : YUV
Субдискретизация насыщенности            : 4:2:0
Битовая глубина                          : 8 бит
Тип развёртки                            : Прогрессивная
Бит/(Пиксели*Кадры)                      : 0.166
Размер потока                            : 5,14 Гбайт (85%)
Заголовок                                : rip by I/N
Библиотека кодирования                   : x264 core 148 r2597 e86f3a1
Настройки программы                      : cabac=1 / ref=4 / deblock=1:-3:-3 / analyse=0x3:0x133 / me=umh / subme=11 / psy=1 / psy_rd=1.00:0.15 / mixed_ref=1 / me_range=48 / chroma_me=1 / trellis=2 / 8x8dct=1 / cqm=0 / deadzone=21,11 / fast_pskip=0 / chroma_qp_offset=-3 / threads=12 / lookahead_threads=3 / sliced_threads=0 / nr=0 / decimate=1 / interlaced=0 / bluray_compat=0 / constrained_intra=0 / bframes=16 / b_pyramid=2 / b_adapt=2 / b_bias=0 / direct=3 / weightb=1 / open_gop=0 / weightp=2 / keyint=250 / keyint_min=23 / scenecut=40 / intra_refresh=0 / rc_lookahead=60 / rc=crf / mbtree=1 / crf=15.0 / qcomp=0.60 / qpmin=0 / qpmax=69 / qpstep=4 / vbv_maxrate=40000 / vbv_bufsize=30000 / crf_max=0.0 / nal_hrd=none / filler=0 / frame-packing=4 / ip_ratio=1.40 / aq=1:1.00
Default                                  : Да
Forced                                   : Нет
Основные цвета                           : BT.709
Характеристики трансфера                 : BT.709
Коэффициенты матрицы                     : BT.709

Аудио #1
Идентификатор                            : 2
Формат                                   : AC-3
Формат/Информация                        : Audio Coding 3
Расширение режима                        : CM (complete main)
Параметр Endianness формата              : Big
Идентификатор кодека                     : A_AC3
Продолжительность                        : 1 ч. 29 м.
Вид битрейта                             : Постоянный
Битрейт                                  : 384 Кбит/сек
Каналы                                   : 6 каналов
Расположение каналов                     : Front: L C R, Side: L R, LFE
Частота                                  : 48,0 КГц
Битовая глубина                          : 16 бит
Метод сжатия                             : С потерями
Размер потока                            : 245 Мбайт (4%)
Заголовок                                : Дубляж (iTunes)
Язык                                     : Russian
Default                                  : Да
Forced                                   : Нет

Аудио #2
Идентификатор                            : 3
Формат                                   : AC-3
Формат/Информация                        : Audio Coding 3
Расширение режима                        : CM (complete main)
Параметр Endianness формата              : Big
Идентификатор кодека                     : A_AC3
Продолжительность                        : 1 ч. 29 м.
Вид битрейта                             : Постоянный
Битрейт                                  : 192 Кбит/сек
Каналы                                   : 2 канала
Расположение каналов                     : Front: L R
Частота                                  : 48,0 КГц
Битовая глубина                          : 16 бит
Метод сжатия                             : С потерями
Размер потока                            : 123 Мбайт (2%)
Заголовок                                : Дубляж (iTunes)
Язык                                     : Ukrainian
Default                                  : Нет
Forced                                   : Нет

Аудио #3
Идентификатор                            : 4
Формат                                   : AC-3
Формат/Информация                        : Audio Coding 3
Расширение режима                        : CM (complete main)
Параметр Endianness формата              : Big
Идентификатор кодека                     : A_AC3
Продолжительность                        : 1 ч. 29 м.
Вид битрейта                             : Постоянный
Битрейт                                  : 640 Кбит/сек
Каналы                                   : 6 каналов
Расположение каналов                     : Front: L C R, Side: L R, LFE
Частота                                  : 48,0 КГц
Битовая глубина                          : 16 бит
Метод сжатия                             : С потерями
Размер потока                            : 409 Мбайт (7%)
Заголовок                                : Original
Язык                                     : English
Default                                  : Нет
Forced                                   : Нет

Текст
Идентификатор                            : 5
Формат                                   : UTF-8
Идентификатор кодека                     : S_TEXT/UTF8
Идентификатор кодека/Информация          : UTF-8 Plain Text
Заголовок                                : Forced
Язык                                     : Russian
Default                                  : Да
Forced                                   : Нет

Меню
00:00:00.000                             : en:00:00:00.000
00:05:46.471                             : en:00:05:46.471
00:09:17.640                             : en:00:09:17.640
00:13:09.706                             : en:00:13:09.706
00:19:29.126                             : en:00:19:29.126
00:22:42.570                             : en:00:22:42.570
00:30:05.303                             : en:00:30:05.303
00:36:12.712                             : en:00:36:12.712
00:40:00.982                             : en:00:40:00.982
00:45:54.377                             : en:00:45:54.377
00:51:22.454                             : en:00:51:22.454
00:56:54.911                             : en:00:56:54.911
01:04:01.921                             : en:01:04:01.921
01:08:32.817                             : en:01:08:32.817
01:13:29.405                             : en:01:13:29.405
01:18:35.878                             : en:01:18:35.878
Скриншоты:


Монстры на каникулах 2 на Torrents43.com

Смотреть Online

http://moonwalk.cc/video/43d7a6e56384042c/iframe
Детали торрента:
Название:Монстры на каникулах 2 / Hotel Transylvania 2 (2015) BDRip 3D [AVC/H.264/1080p] [Вертикальная анаморфная стереопара]
Дата добавления:28 Дек 2015 20:13:32
Размер:6,01 GB
Раздают:1
Качают:0
Форум:Зарубежные Мультфильмы (3D)

All rights reserved © 2015-2018