TORRENTS43.COM

Скачать Lionel Hampton & His Giants of Jazz - Hamp in Haarlem (1979) 2000, Timeless Records[FLAC|tracks+.cue] <Mainstream Jazz, Swing>


Lionel Hampton & His Giants of Jazz - Hamp in Haarlem (1979) 2000, Timeless Records
Год: 2000
Год записи: 1979
Жанр: Mainstream Jazz, Swing
Продолжительность: 00:44:36

Кодек: FLAC (tracks+.cue)
Битрейт: Lossless
Источник (релизер): what

Издатель (лейбл): Timeless Records
Номер по каталогу: CDSJP 133
Страна-производитель диска: Netherlands
Наличие сканов в содержимом раздачи: да

Треклист:

01.Glad Hamp [07:35]
02.Ol' Man River [06:03]
03.Greasy Greens [06:22]
04.Mr. P.C. [02:43]
05.Hamp's Got the Blues [12:06]
06.Salsa, Ein Burgermeister de Francoise [09:50]

Отчёт ЕАС:

Код:

Exact Audio Copy V1.0 beta 3 from 29. August 2011

EAC extraction logfile from 9. February 2014, 23:34

Lionel Hampton / Hamp in Haarlem

Used drive  : PLEXTOR CD-R   PREMIUM2   Adapter: 0  ID: 0

Read mode               : Secure
Utilize accurate stream : Yes
Defeat audio cache      : Yes
Make use of C2 pointers : No

Read offset correction                      : 30
Overread into Lead-In and Lead-Out          : No
Fill up missing offset samples with silence : Yes
Delete leading and trailing silent blocks   : No
Null samples used in CRC calculations       : Yes
Used interface                              : Native Win32 interface for Win NT & 2000
Gap handling                                : Appended to previous track

Used output format              : User Defined Encoder
Selected bitrate                : 128 kBit/s
Quality                         : High
Add ID3 tag                     : No
Command line compressor         : C:\Program Files\Exact Audio Copy\Flac\flac.exe
Additional command line options : -8 -V -T "ARTIST=%artist%" -T "TITLE=%title%" -T "ALBUM=%albumtitle%" -T "DATE=%year%" -T "TRACKNUMBER=%tracknr%" -T "TOTALTRACKS=%numtracks%" -T "GENRE=%genre%" -T "ALBUMARTIST=%albumartist%" -T "ALBUM ARTIST=%albumartist%" -T "COMMENT=EAC Secure Mode, Test & Copy, AccurateRip, FLAC -8" %source%

TOC of the extracted CD

     Track |   Start  |  Length  | Start sector | End sector
    ---------------------------------------------------------
        1  |  0:00.00 |  7:34.25 |         0    |    34074
        2  |  7:34.25 |  6:02.07 |     34075    |    61231
        3  | 13:36.32 |  6:21.23 |     61232    |    89829
        4  | 19:57.55 |  2:42.57 |     89830    |   102036
        5  | 22:40.37 | 12:05.33 |    102037    |   156444
        6  | 34:45.70 |  9:49.57 |    156445    |   200676

Track  1

     Filename F:\EAC WAV\01 - Glad Hamp.wav

     Pre-gap length  0:00:02.00

     Peak level 69.6 %
     Extraction speed 8.5 X
     Track quality 100.0 %
     Test CRC 9BCB883C
     Copy CRC 9BCB883C
     Accurately ripped (confidence 1)  [80B1A42E]  (AR v2)
     Copy OK

Track  2

     Filename F:\EAC WAV\02 - Ol' Man River.wav

     Pre-gap length  0:00:00.03

     Peak level 77.8 %
     Extraction speed 9.8 X
     Track quality 100.0 %
     Test CRC F5E2A350
     Copy CRC F5E2A350
     Accurately ripped (confidence 1)  [3328460C]  (AR v2)
     Copy OK

Track  3

     Filename F:\EAC WAV\03 - Greasy Greens.wav

     Pre-gap length  0:00:00.02

     Peak level 92.0 %
     Extraction speed 10.8 X
     Track quality 100.0 %
     Test CRC D57D6D04
     Copy CRC D57D6D04
     Accurately ripped (confidence 1)  [5ECEC7EB]  (AR v2)
     Copy OK

Track  4

     Filename F:\EAC WAV\04 - Mr. P.C..wav

     Pre-gap length  0:00:00.03

     Peak level 69.5 %
     Extraction speed 11.1 X
     Track quality 100.0 %
     Test CRC A5B3F885
     Copy CRC A5B3F885
     Accurately ripped (confidence 1)  [F8253116]  (AR v2)
     Copy OK

Track  5

     Filename F:\EAC WAV\05 - Hamp's Got the Blues.wav

     Peak level 74.2 %
     Extraction speed 12.7 X
     Track quality 100.0 %
     Test CRC 62635597
     Copy CRC 62635597
     Accurately ripped (confidence 1)  [987876E3]  (AR v2)
     Copy OK

Track  6

     Filename F:\EAC WAV\06 - Salsa, Ein Burgermeister de Francoise.wav

     Peak level 78.1 %
     Extraction speed 14.2 X
     Track quality 100.0 %
     Test CRC 81028693
     Copy CRC 81028693
     Accurately ripped (confidence 1)  [C745F7BD]  (AR v2)
     Copy OK

All tracks accurately ripped

No errors occurred

End of status report

---- CUETools DB Plugin V2.1.3

[CTDB TOCID: qqX1H2EqZRy7b8UQ6cZ7foMHvHA-] database access error: Pending

==== Log checksum F10395E984D9962284DE2A00FCEE548495F21EF25469E699E3D5827326333147 ====

Отчёт auCDtect Task manager:

Код:

-----------------------

DON'T MODIFY THIS FILE

-----------------------

PERFORMER: auCDtect Task Manager, ver. 1.6.0 RC1 build 1.6.0.1
Copyright (c) 2008-2010 y-soft. All rights reserved
http://y-soft.org

ANALYZER: auCDtect: CD records authenticity detector, version 0.8.2
Copyright (c) 2004 Oleg Berngardt. All rights reserved.
Copyright (c) 2004 Alexander Djourik. All rights reserved.

FILE: 06 - Salsa, Ein Burgermeister de Francoise.flac
  Size: 66973407 Hash: 0F282FE66A4A88C1251D296FC9E75122 Accuracy: -m0
  Conclusion: CDDA 100%
  Signature: 5ADF3062FCA350F67D0A572C35DE32910DF432B8
FILE: 05 - Hamp's Got the Blues.flac
  Size: 76092514 Hash: F50065ABBD4E91F909DE47C9EC7063B0 Accuracy: -m0
  Conclusion: CDDA 100%
  Signature: 6AB66D36D6773D33CDF77C5AE3894EAB168C0FD7
FILE: 04 - Mr. P.C..flac
  Size: 17568311 Hash: 7A5885BEB374533EF78FC9069E63DF00 Accuracy: -m0
  Conclusion: CDDA 100%
  Signature: 8019633AC0737FC083A5DBD7B04F3D94B6C5E8FF
FILE: 03 - Greasy Greens.flac
  Size: 41972684 Hash: 551B20AD7DE88F6D50463E2EE4A61C6F Accuracy: -m0
  Conclusion: CDDA 100%
  Signature: 8B377E38268A4626D9CD723CEDEFEF99503096F2
FILE: 02 - Ol' Man River.flac
  Size: 28957625 Hash: BC7F4E9BC17F626EFCDBFEA1C56FDFFE Accuracy: -m0
  Conclusion: CDDA 94%
  Signature: 7ED3CF6DF8FA5D06F6B8F5B00039AD39DFA6BD28
FILE: 01 - Glad Hamp.flac
  Size: 47839246 Hash: 669C2AC97AEB2603104D63B735E0F472 Accuracy: -m0
  Conclusion: CDDA 100%
  Signature: 8138A019DE1AB3770224E395564804545CDA8811

Содержание индексной карты (.CUE)

Код:

REM GENRE Jazz
REM DATE 1979
REM DISCID 530A7306
REM COMMENT "ExactAudioCopy v1.0b3"
PERFORMER "Lionel Hampton"
TITLE "Hamp in Haarlem"
FILE "01 - Glad Hamp.wav" WAVE
  TRACK 01 AUDIO
    TITLE "Glad Hamp"
    PERFORMER "Lionel Hampton"
    INDEX 01 00:00:00
  TRACK 02 AUDIO
    TITLE "Ol' Man River"
    PERFORMER "Lionel Hampton"
    INDEX 00 07:34:22
FILE "02 - Ol' Man River.wav" WAVE
    INDEX 01 00:00:00
  TRACK 03 AUDIO
    TITLE "Greasy Greens"
    PERFORMER "Lionel Hampton"
    INDEX 00 06:02:05
FILE "03 - Greasy Greens.wav" WAVE
    INDEX 01 00:00:00
  TRACK 04 AUDIO
    TITLE "Mr. P.C."
    PERFORMER "Lionel Hampton"
    INDEX 00 06:21:20
FILE "04 - Mr. P.C..wav" WAVE
    INDEX 01 00:00:00
FILE "05 - Hamp's Got the Blues.wav" WAVE
  TRACK 05 AUDIO
    TITLE "Hamp's Got the Blues"
    PERFORMER "Lionel Hampton"
    INDEX 01 00:00:00
FILE "06 - Salsa, Ein Burgermeister de Francoise.wav" WAVE
  TRACK 06 AUDIO
    TITLE "Salsa, Ein Burgermeister de Francoise"
    PERFORMER "Lionel Hampton"
    INDEX 01 00:00:00

Состав

Lionel Hampton - vibraphone, drums, piano, vocal
Joe Newman, Wallace Davenport - trumpet
Curtis Fuller - trombone
Steve Slagle - alto saxophone
Paul Moen - tenor saxophone
Paul Jeffrey - baritone saxophone
Wild Bill Davis - organ, piano
Gary Mazzaroppi - bass
Richie Pratt - drums

Recorded live at the Concertgebouw, Haarlem, Holland on May 20, 1979




Поглощение/вытеснение
Только с согласия релизера

gvm55

Детали торрента:
Название:Lionel Hampton & His Giants of Jazz - Hamp in Haarlem (1979) 2000, Timeless Records[FLAC|tracks+.cue] <Mainstream Jazz, Swing>
Дата добавления:10 Янв 2016 15:33:17
Размер:270 MB
Раздают:1
Качают:0
Форум:Jazz (Lossless)

All rights reserved © 2015-2018