TORRENTS43.COM

Скачать Звездное выживание с Беаром Гриллсом - Барак Обама / Running Wild with Bear Grylls (2015) HDTVRip [H.264/1080i] [DVO]


Звездное выживание с Беаром Гриллсом - Барак Обама / Running Wild with Bear Grylls (2015) HDTV [H.264/1080i]
Телекомпания: Discovery
Жанр: Документальный

Участники: Беар Гриллс, Барак Обама

Описание:
В новом сезоне популярного проекта "Звездное выживание с Беаром Гриллсом" вместе со знаменитым экспертом-экстремалом навстречу приключениям отправится президент США Барак Обама! Влиятельный политик пройдет 48-часовой курс выживания в горах Аляски, где ему предстоит преодолевать горные реки, штурмовать крутые склоны и питаться тем, что удастся поймать или найти – например, рыбой, которую не доел медведь. Свою безопасность президент США Барак Обама доверит Беару Гриллсу.

Качество видео: HDTVRip
Продолжительность: 00:41:01
Перевод: Профессиональный двуголосый закадровый
Субтитры: Отсутствуют

Видео: AVC/H.264, 1920x1080, ~9.0 mbps
Аудио: AC3, 6 ch, 384 kbps

Mediainfo:

Код:

Общее
Идентификатор                            : 1 (0x1)
Полное имя                               :Zvezdnoe.Vyzhivanie.Obama.ts
Формат                                   : MPEG-TS
Размер файла                             : 2,83 Гбайт
Продолжительность                        : 40 м.
Режим общего битрейта                    : Переменный
Общий поток                              : 9890 Кбит/сек

Видео
Идентификатор                            : 325 (0x145)
Идентификатор меню                       : 12105 (0x2F49)
Формат                                   : AVC
Формат/Информация                        : Advanced Video Codec
Профиль формата                          : Main@L4
Параметр CABAC формата                   : Да
Параметр ReFrames формата                : 4 кадра
Идентификатор кодека                     : 27
Продолжительность                        : 40 м.
Битрейт                                  : 9014 Кбит/сек
Ширина                                   : 1920 пикселей
Высота                                   : 1080 пикселей
Соотношение сторон                       : 16:9
Частота кадров                           : 25,000 кадров/сек
Стандарт вещания                         : Component
Цветовое пространство                    : YUV
Субдискретизация насыщенности            : 4:2:0
Битовая глубина                          : 8 бит
Тип развёртки                            : Чересстрочная
Метод сохранения типа развёртки          : Раздельные поля
Порядок развёртки                        : Верхнее поле первое
Бит/(Пиксели*Кадры)                      : 0.174
Размер потока                            : 2,58 Гбайт (91%)
Цветовой диапазон                        : Limited
Основные цвета                           : BT.709
Характеристики трансфера                 : BT.709
Коэффициенты матрицы                     : BT.709

Аудио
Идентификатор                            : 405 (0x195)
Идентификатор меню                       : 12105 (0x2F49)
Формат                                   : AC-3
Формат/Информация                        : Audio Coding 3
Расширение режима                        : CM (complete main)
Параметр Endianness формата              : Big
Идентификатор кодека                     : 6
Продолжительность                        : 40 м.
Вид битрейта                             : Постоянный
Битрейт                                  : 384 Кбит/сек
Каналы                                   : 6 каналов
Расположение каналов                     : Front: L C R, Side: L R, LFE
Частота                                  : 48,0 КГц
Частота кадров                           : 31,250 кадров/сек (1536 spf)
Метод сжатия                             : С потерями
Задержка видео                           : -40 мс.
Размер потока                            : 113 Мбайт (4%)
Язык                                     : Russian
Скриншоты:


Смотреть Online

http://moonwalk.cc/video/c7fc2e213731bd82/iframe
Детали торрента:
Название:Звездное выживание с Беаром Гриллсом - Барак Обама / Running Wild with Bear Grylls (2015) HDTVRip [H.264/1080i] [DVO]
Дата добавления:11 Янв 2016 11:33:53
Размер:2,83 GB
Раздают:2
Качают:0
Форум:Discovery

All rights reserved © 2015-2018