TORRENTS43.COM

Скачать Отступление / Backtrack (2015) WEB-DL [H.264/720p-LQ]


Отступление / Backtrack (2015) WEB-DL [H.264/720p-LQ]
Производство: Австралия, Head Gear Films, Metrol Technology, Screen Australia, See Pictures
Жанр: Триллер, Детектив

Режиссер: Майкл Петрони
Актеры: Эдриан Броуди, Сэм Нилл, Брюс Спенс, Робин МакЛиви, Дженни Бейрд, Анна Лизе Филлипс, Хлоя Бэйлисс, Ольга Миллер, Малкольм Кеннард

Описание:
Жизнь психолога Питера Бауэрса меняется не в лучшую сторону, когда он понимает, что его пациенты — призраки людей, умерших в результате несчастного случая 20 лет назад. Боясь сойти с ума, Питер возвращается в свой родной город, где раскрывает ужасающую правду, которую может исправить только он.


Дата мировой премьеры: 18 апреля 2015

Релиз от: and7610

Продолжительность: 01:25:40
Качество видео: WEB-DL
Перевод: Двуголосый закадровый, любительский (Parovoz Production)
Субтитры: Отсутствуют
Реклама: Присутствуют голосовые вставки

Видео: AVC/H.264, 960x530@1280х530, ~4036 Кбит/с
Аудио 1: AC3, 2 ch, 192 kb/s - Русский (Parovoz Production)
Аудио 2: AC3, 6 ch, 384 kb/s - Английский (Оригинал)
Семпл: Скачать

Mediainfo:

Код:

General
Unique ID                      : 250068371711799437884459812342915766891 (0xBC216AA136207A10B0CE2D9B66459A6B)
Complete name                  : D:\Downloading\Backtrack.2015.WEB-DL.720p.mkv
Format                         : Matroska
Format version                 : Version 4 / Version 2
File size                      : 2.76 GiB
Duration                       : 1h 25mn
Overall bit rate               : 4 615 Kbps
Encoded date                   : UTC 2016-02-03 15:59:16
Writing application            : mkvmerge v8.8.0 ('Wind at my back') 64bit
Writing library                : libebml v1.3.3 + libmatroska v1.4.4

Video
ID                             : 1
Format                         : AVC
Format/Info                    : Advanced Video Codec
Format profile                 : Main@L3.1
Format settings, CABAC         : No
Format settings, ReFrames      : 2 frames
Codec ID                       : V_MPEG4/ISO/AVC
Duration                       : 1h 25mn
Bit rate                       : 4 036 Kbps
Width                          : 960 pixels
Height                         : 530 pixels
Display aspect ratio           : 2.40:1
Frame rate mode                : Constant
Frame rate                     : 25.000 fps
Color space                    : YUV
Chroma subsampling             : 4:2:0
Bit depth                      : 8 bits
Scan type                      : Progressive
Bits/(Pixel*Frame)             : 0.317
Stream size                    : 2.42 GiB (87%)
Language                       : English
Default                        : Yes
Forced                         : No
Color range                    : Limited
Color primaries                : BT.709
Transfer characteristics       : BT.709
Matrix coefficients            : BT.709

Audio #1
ID                             : 2
Format                         : AC-3
Format/Info                    : Audio Coding 3
Mode extension                 : CM (complete main)
Format settings, Endianness    : Big
Codec ID                       : A_AC3
Duration                       : 1h 25mn
Bit rate mode                  : Constant
Bit rate                       : 192 Kbps
Channel(s)                     : 2 channels
Channel positions              : Front: L R
Sampling rate                  : 48.0 KHz
Frame rate                     : 31.250 fps (1536 spf)
Compression mode               : Lossy
Delay relative to video        : 16ms
Stream size                    : 118 MiB (4%)
Language                       : Russian
Default                        : Yes
Forced                         : No

Audio #2
ID                             : 3
Format                         : AC-3
Format/Info                    : Audio Coding 3
Mode extension                 : CM (complete main)
Format settings, Endianness    : Big
Codec ID                       : A_AC3
Duration                       : 1h 25mn
Bit rate mode                  : Constant
Bit rate                       : 384 Kbps
Channel(s)                     : 6 channels
Channel positions              : Front: L C R, Side: L R, LFE
Sampling rate                  : 48.0 KHz
Frame rate                     : 31.250 fps (1536 spf)
Compression mode               : Lossy
Delay relative to video        : 16ms
Stream size                    : 235 MiB (8%)
Language                       : English
Default                        : No
Forced                         : No

Menu
00:00:00.000                   : en:1
00:07:54.800                   : en:2
00:14:48.800                   : en:3
00:23:49.800                   : en:4
00:32:23.800                   : en:5
00:40:36.800                   : en:6
00:49:36.800                   : en:7
01:00:00.800                   : en:8
01:04:51.800                   : en:9
01:14:19.800                   : en:10
Скриншоты:


Смотреть Online

http://moonwalk.cc/video/f596dc82b51ffce5/iframe
Детали торрента:
Название:Отступление / Backtrack (2015) WEB-DL [H.264/720p-LQ]
Дата добавления:03 Фев 2016 19:18:38
Размер:2,76 GB
Раздают:2
Качают:0
Форум:Архив Видео

All rights reserved © 2015-2018