TORRENTS43.COM

Скачать Richard Clayderman - When A Man Loves A Woman (1995) 2002 Universal Music Russia [FLAC|Lossless|tracks + .cue] <Modern, Romantic>


Richard Clayderman - When A Man Loves A Woman (1995) 2002 Universal Music Russia
Год: 1995
Жанр: Modern, Romantic
Издание: Stereo & Video – S&V 047, Universal Music Russia – 8270559
Продолжительность: 00:56:15

Источник (релизер): blandrew®

Кодек: FLAC
Битрейт: Lossless
Тип рипа: tracks + .cue

Треклист:
01. I Will Always Love You (4:12)
02. When a Man Loves a Woman (2:58)
03. Goodnight Girl (3:35)
04. The Streets of Philadelphia (3:37)
05. Save the Best for Last (2:45)
06. Have I Told You Lately (3:31)
07. Another Day in Paradise (3:33)
08. When You Tell Me That You Love Me (3:26)
09. Everytime You Go Away (2:50)
10. True Love (3:31)
11. A Legend of Greensleeves (3:59)
12. Capriccio Romantice (2:59)
13. Andantino Semplice (4:43)
14. Pastorale (3:31)
15. Polovetsian Dances (3:13)
16. Nocturne (3:45)

Отчёт ЕАС:

Код:

Exact Audio Copy V1.1 from 23. June 2015

EAC extraction logfile from 10. February 2016, 12:00

Richard Clayderman / When a Man Loves a Woman

Used drive  : ASUS    BW-12D1S-U   Adapter: 1  ID: 0

Read mode               : Secure
Utilize accurate stream : Yes
Defeat audio cache      : Yes
Make use of C2 pointers : No

Read offset correction                      : 667
Overread into Lead-In and Lead-Out          : No
Fill up missing offset samples with silence : Yes
Delete leading and trailing silent blocks   : No
Null samples used in CRC calculations       : Yes
Used interface                              : Native Win32 interface for Win NT & 2000
Gap handling                                : Appended to previous track

Used output format              : User Defined Encoder
Selected bitrate                : 768 kBit/s
Quality                         : High
Add ID3 tag                     : No
Command line compressor         : D:\Program Files (x86)\Exact Audio Copy\Flac\flac.exe
Additional command line options : -8 -V -T "TITLE=%title%" -T "ARTIST=%artist%" -T "ALBUMARTIST=%albumartist%" -T "ALBUM=%albumtitle%" -T "DATE=%year%" -T "TRACKNUMBER=%tracknr%" -T "TRACKTOTAL=%numtracks%" -T "GENRE=%genre%" -T "COMMENT=%comment%" -T "PERFORMER=%albuminterpret%" -T "COMPOSER=%composer%" %source% -o %dest%

TOC of the extracted CD

     Track |   Start  |  Length  | Start sector | End sector
    ---------------------------------------------------------
        1  |  0:00.00 |  4:12.27 |         0    |    18926
        2  |  4:12.27 |  2:58.72 |     18927    |    32348
        3  |  7:11.24 |  3:35.05 |     32349    |    48478
        4  | 10:46.29 |  3:37.39 |     48479    |    64792
        5  | 14:23.68 |  2:45.15 |     64793    |    77182
        6  | 17:09.08 |  3:31.69 |     77183    |    93076
        7  | 20:41.02 |  3:33.15 |     93077    |   109066
        8  | 24:14.17 |  3:26.24 |    109067    |   124540
        9  | 27:40.41 |  2:50.15 |    124541    |   137305
       10  | 30:30.56 |  3:31.22 |    137306    |   153152
       11  | 34:02.03 |  3:59.57 |    153153    |   171134
       12  | 38:01.60 |  2:59.02 |    171135    |   184561
       13  | 41:00.62 |  4:43.74 |    184562    |   205860
       14  | 45:44.61 |  3:31.45 |    205861    |   221730
       15  | 49:16.31 |  3:13.54 |    221731    |   236259
       16  | 52:30.10 |  3:45.71 |    236260    |   253205

Track  1

     Filename D:\Video&Music&Books\1995 - When a Man Loves a Woman\01 I Will Always Love You.wav

     Pre-gap length  0:00:02.00

     Peak level 99.6 %
     Extraction speed 4.4 X
     Track quality 100.0 %
     Test CRC E442FA24
     Copy CRC E442FA24
     Accurately ripped (confidence 5)  [69DA5777]  (AR v2)
     Copy OK

Track  2

     Filename D:\Video&Music&Books\1995 - When a Man Loves a Woman\02 When a Man Loves a Woman.wav

     Pre-gap length  0:00:03.34

     Peak level 99.6 %
     Extraction speed 3.9 X
     Track quality 99.9 %
     Test CRC 489C73FF
     Copy CRC 489C73FF
     Accurately ripped (confidence 5)  [3D5EF57D]  (AR v2)
     Copy OK

Track  3

     Filename D:\Video&Music&Books\1995 - When a Man Loves a Woman\03 Goodnight Girl.wav

     Pre-gap length  0:00:03.19

     Peak level 96.0 %
     Extraction speed 5.0 X
     Track quality 100.0 %
     Test CRC 537DA94A
     Copy CRC 537DA94A
     Accurately ripped (confidence 5)  [84640E96]  (AR v2)
     Copy OK

Track  4

     Filename D:\Video&Music&Books\1995 - When a Man Loves a Woman\04 The Streets of Philadelphia.wav

     Pre-gap length  0:00:03.06

     Peak level 99.6 %
     Extraction speed 5.4 X
     Track quality 100.0 %
     Test CRC 5E451028
     Copy CRC 5E451028
     Accurately ripped (confidence 5)  [72C264A6]  (AR v2)
     Copy OK

Track  5

     Filename D:\Video&Music&Books\1995 - When a Man Loves a Woman\05 Save the Best for Last.wav

     Pre-gap length  0:00:01.73

     Peak level 82.5 %
     Extraction speed 5.4 X
     Track quality 100.0 %
     Test CRC 29A8AED6
     Copy CRC 29A8AED6
     Accurately ripped (confidence 4)  [473F17F3]  (AR v2)
     Copy OK

Track  6

     Filename D:\Video&Music&Books\1995 - When a Man Loves a Woman\06 Have I Told You Lately.wav

     Pre-gap length  0:00:03.14

     Peak level 90.7 %
     Extraction speed 5.9 X
     Track quality 100.0 %
     Test CRC E5C26B85
     Copy CRC E5C26B85
     Accurately ripped (confidence 5)  [9749F317]  (AR v2)
     Copy OK

Track  7

     Filename D:\Video&Music&Books\1995 - When a Man Loves a Woman\07 Another Day in Paradise.wav

     Pre-gap length  0:00:03.09

     Peak level 99.6 %
     Extraction speed 6.1 X
     Track quality 100.0 %
     Test CRC CF0C54E4
     Copy CRC CF0C54E4
     Accurately ripped (confidence 5)  [77253CEA]  (AR v2)
     Copy OK

Track  8

     Filename D:\Video&Music&Books\1995 - When a Man Loves a Woman\08 When You Tell Me That You Love Me.wav

     Pre-gap length  0:00:01.74

     Peak level 99.4 %
     Extraction speed 6.3 X
     Track quality 100.0 %
     Test CRC AFBA9C05
     Copy CRC AFBA9C05
     Accurately ripped (confidence 5)  [3910F0C1]  (AR v2)
     Copy OK

Track  9

     Filename D:\Video&Music&Books\1995 - When a Man Loves a Woman\09 Everytime You Go Away.wav

     Pre-gap length  0:00:03.24

     Peak level 93.9 %
     Extraction speed 6.3 X
     Track quality 100.0 %
     Test CRC D7EA1DCA
     Copy CRC D7EA1DCA
     Accurately ripped (confidence 5)  [F0DA6E88]  (AR v2)
     Copy OK

Track 10

     Filename D:\Video&Music&Books\1995 - When a Man Loves a Woman\10 True Love.wav

     Pre-gap length  0:00:02.61

     Peak level 96.0 %
     Extraction speed 6.7 X
     Track quality 100.0 %
     Test CRC C2274637
     Copy CRC C2274637
     Accurately ripped (confidence 4)  [48DE48E2]  (AR v2)
     Copy OK

Track 11

     Filename D:\Video&Music&Books\1995 - When a Man Loves a Woman\11 A Legend of Greensleeves.wav

     Pre-gap length  0:00:03.09

     Peak level 99.6 %
     Extraction speed 7.1 X
     Track quality 100.0 %
     Test CRC A1B7D663
     Copy CRC A1B7D663
     Accurately ripped (confidence 4)  [0CBD54A0]  (AR v2)
     Copy OK

Track 12

     Filename D:\Video&Music&Books\1995 - When a Man Loves a Woman\12 Capriccio Romantice.wav

     Pre-gap length  0:00:03.50

     Peak level 96.6 %
     Extraction speed 7.0 X
     Track quality 100.0 %
     Test CRC 5EF1EB53
     Copy CRC 5EF1EB53
     Accurately ripped (confidence 5)  [AAF8D10B]  (AR v2)
     Copy OK

Track 13

     Filename D:\Video&Music&Books\1995 - When a Man Loves a Woman\13 Andantino Semplice.wav

     Pre-gap length  0:00:03.09

     Peak level 93.7 %
     Extraction speed 7.6 X
     Track quality 100.0 %
     Test CRC D0BC2FF4
     Copy CRC D0BC2FF4
     Accurately ripped (confidence 4)  [CB7DE0DA]  (AR v2)
     Copy OK

Track 14

     Filename D:\Video&Music&Books\1995 - When a Man Loves a Woman\14 Pastorale.wav

     Pre-gap length  0:00:03.03

     Peak level 99.6 %
     Extraction speed 7.5 X
     Track quality 100.0 %
     Test CRC 348A5FA9
     Copy CRC 348A5FA9
     Accurately ripped (confidence 4)  [54A68BA7]  (AR v2)
     Copy OK

Track 15

     Filename D:\Video&Music&Books\1995 - When a Man Loves a Woman\15 Polovetsian Dances.wav

     Pre-gap length  0:00:02.68

     Peak level 91.0 %
     Extraction speed 7.5 X
     Track quality 100.0 %
     Test CRC 5BEE213A
     Copy CRC 5BEE213A
     Accurately ripped (confidence 5)  [2A8B9042]  (AR v2)
     Copy OK

Track 16

     Filename D:\Video&Music&Books\1995 - When a Man Loves a Woman\16 Nocturne.wav

     Pre-gap length  0:00:02.28

     Peak level 88.7 %
     Extraction speed 7.9 X
     Track quality 100.0 %
     Test CRC 8B24A862
     Copy CRC 8B24A862
     Accurately ripped (confidence 5)  [1300B622]  (AR v2)
     Copy OK

All tracks accurately ripped

No errors occurred

End of status report

==== Log checksum FB58A839D1EE42738944B0076F81B9C96218E476FD902E9F4316D2B00AD833B9 ====

Отчёт auCDtect Task manager:

Код:

-----------------------

DON'T MODIFY THIS FILE

-----------------------

PERFORMER: auCDtect Task Manager, ver. 1.6.0 RC1 build 1.6.0.1
Copyright (c) 2008-2010 y-soft. All rights reserved
http://y-soft.org

ANALYZER: auCDtect: CD records authenticity detector, version 0.8.2
Copyright (c) 2004 Oleg Berngardt. All rights reserved.
Copyright (c) 2004 Alexander Djourik. All rights reserved.

FILE: 16 Nocturne.flac
  Size: 20009033 Hash: 1292745AD0F46A44950C333D6DE95F3D Accuracy: -m0
  Conclusion: CDDA 100%
  Signature: 87DAFFD09720A771C8B8ED9D091DDFE4B31941E1
FILE: 15 Polovetsian Dances.flac
  Size: 21194909 Hash: F8CCAD937D0D8D06480EE75F974E538E Accuracy: -m0
  Conclusion: CDDA 100%
  Signature: 84FE9EEBEEFB9EF63477255162E3E157A6AAC0FF
FILE: 14 Pastorale.flac
  Size: 19069399 Hash: CF2AC0BF027ABD52F3D8F8D90D393194 Accuracy: -m0
  Conclusion: CDDA 100%
  Signature: 7325E321A70BEB135D04579A9D6B68A16E56C4C4
FILE: 13 Andantino Semplice.flac
  Size: 22126667 Hash: FF79657EF894D009E98EAE172327B21D Accuracy: -m0
  Conclusion: CDDA 100%
  Signature: 729B2A033F10545FB889CC8636DDE3C4A0FE0599
FILE: 12 Capriccio Romantice.flac
  Size: 16977311 Hash: 638C3E36ED72257C2DBEC1AFB8723AE2 Accuracy: -m0
  Conclusion: CDDA 100%
  Signature: 8C2763F63CC6A00E2A7E83197AEAD7A135F342E8
FILE: 11 A Legend of Greensleeves.flac
  Size: 22533497 Hash: 1300ADBE784A199846B4F9439ADA69B0 Accuracy: -m0
  Conclusion: CDDA 100%
  Signature: 906B9413FA6115509636F70A25FD99B31AB686F7
FILE: 10 True Love.flac
  Size: 20379111 Hash: FF21D4EB1440FB156694A0DFA80A65DE Accuracy: -m0
  Conclusion: CDDA 100%
  Signature: 628FEE5A4127E82E5EC0EFEF4FA9235489CD6254
FILE: 09 Everytime You Go Away.flac
  Size: 15944702 Hash: CC9B59CAD98F6B0FBD19F8FD8B98FD99 Accuracy: -m0
  Conclusion: CDDA 100%
  Signature: 3E5ED9C93AEDC4AD5972700BDF9B3AD4A45D3E73
FILE: 08 When You Tell Me That You Love Me.flac
  Size: 18264321 Hash: 2EBFEACC0BF22619A4072830F9962571 Accuracy: -m0
  Conclusion: CDDA 100%
  Signature: 96F1AAD85B97BF602FD1A3113B78563E81F9EC4B
FILE: 07 Another Day in Paradise.flac
  Size: 18362280 Hash: 04CA580FD8D9CA9ABCE7430A202EA7FF Accuracy: -m0
  Conclusion: CDDA 100%
  Signature: 0F2E48D74B81903253C573F5921737B023AA932D
FILE: 06 Have I Told You Lately.flac
  Size: 19065506 Hash: E65D98476B536AA90699E5FA07C876C9 Accuracy: -m0
  Conclusion: CDDA 100%
  Signature: 391AA169A775D05312B5AC7EBB4837FB2454CDB5
FILE: 05 Save the Best for Last.flac
  Size: 14174566 Hash: B1A7DDF9FB7D56E8165CC105005B5FB8 Accuracy: -m0
  Conclusion: CDDA 100%
  Signature: F6553BBBD2AFCC95002D7099D0D84E2CFB6F4A54
FILE: 04 The Streets of Philadelphia.flac
  Size: 17097736 Hash: AB60AC4E9E16AC06AB0749AFDF2715EE Accuracy: -m0
  Conclusion: CDDA 99%
  Signature: 744FD8FF6117B3FE78C37A19E8E977D185DA04E4
FILE: 03 Goodnight Girl.flac
  Size: 20771806 Hash: BCAB437A1E995292EF17A50C8D08C8FA Accuracy: -m0
  Conclusion: CDDA 100%
  Signature: 4A679E3CC319A108C05D0D84ABE78A4E8D62D58A
FILE: 02 When a Man Loves a Woman.flac
  Size: 15890849 Hash: FAC2F6828A1F1D03998398D269053EA7 Accuracy: -m0
  Conclusion: CDDA 99%
  Signature: 03937940DABC61F4EE43141D5A057613374709BA
FILE: 01 I Will Always Love You.flac
  Size: 22217435 Hash: F648D48D1F01BA78FF117C833C50673F Accuracy: -m0
  Conclusion: CDDA 100%
  Signature: 8987156729466C0CE38669D41DD49917E333EC96

Спектрограмма:






Поглощение/вытеснение
Только с согласия релизера

gvm55

Детали торрента:
Название:Richard Clayderman - When A Man Loves A Woman (1995) 2002 Universal Music Russia [FLAC|Lossless|tracks + .cue] <Modern, Romantic>
Дата добавления:10 Фев 2016 21:41:07
Размер:291 MB
Раздают:3
Качают:0
Форум:Instrumental (Lossless)

All rights reserved © 2015-2018