TORRENTS43.COM

Скачать Мыслить как преступник: За границей / Criminal Minds: Beyond Borders (2016) WEB-DL [H.264/720p-LQ] (сезон 1, серии 1-13 из 13) OMSKBIRD


Мыслить как преступник: За границей / Criminal Minds: Beyond Borders (2016) WEB-DL [H.264/720p-LQ] (сезон 1, серии 1-13 из 13) OMSKBIRD
Производство: США / Mark Gordon Company, CBS Television Studios, ABC Studios
Жанр: ужасы, драма

Режиссер: Роб Бэйли, Мэтт Эрл Бисли, Лаура Белси
Актеры: Гэри Синиз, Энни Функе, Алана де ла Гарса, Дэниэл Хенни, Тайлер Джеймс Уильямс, Афшин Оляи и др.

Описание:
Спин-офф детективного сериала "Мыслить как преступник". Сериал рассказывает об элитной команде из
ФБР, занимающейся расследованием преступлений за пределами США, в которые вовлечены американские граждане.


Дата мировой премьеры: 16.03.2016

Продолжительность: ~00:44:00 серия
Качество видео: WEB-DL
Перевод: Многоголосый закадровый, профессиональный | OMSKBIRD
Реклама: присутствуют аудио вставки рекламы.

Видео: AVC/H.264, 1280x720, ~3916 kbps
Аудио # 1 Rus: AC-3, 6 ch, 384 kbps, CBR - многоголосый закадровый
Аудио # 2 Eng: AC-3, 6 ch, 384 kbps, CBR - оригинал

Mediainfo:

Код: выделить все

General
Unique ID                                : 193238885633453780421053504522547877081 (0x916074A3EA50C1E39745C2ABD04BD4D9)
Complete name                            : F:\Мои Документы\Видео\РАЗДАЧИ\Криминал Майндс\Criminal Minds Beyond Borders S01 WEB-DL 720p (OMSKBIRD)\Criminal Minds Beyond Borders S01E01 WEB-DL 720p (OMSKBIRD).mkv
Format                                   : Matroska
Format version                           : Version 2
File size                                : 1.40 GiB
Duration                                 : 41mn 57s
Overall bit rate                         : 4 779 Kbps
Encoded date                             : UTC 2016-03-18 13:11:47
Writing application                      : mkvmerge v4.0.0 ('The Stars were mine') сборка от Jun  6 2010 16:18:42
Writing library                          : libebml v1.0.0 + libmatroska v1.0.0
Attachment                               : Yes / Yes / Yes / Yes

Video
ID                                       : 1
Format                                   : AVC
Format/Info                              : Advanced Video Codec
Format profile                           : High@L3.1
Format settings, CABAC                   : No
Format settings, ReFrames                : 2 frames
Codec ID                                 : V_MPEG4/ISO/AVC
Duration                                 : 41mn 57s
Bit rate                                 : 3 916 Kbps
Width                                    : 1 280 pixels
Height                                   : 720 pixels
Display aspect ratio                     : 16:9
Frame rate                               : 23.976 fps
Color space                              : YUV
Chroma subsampling                       : 4:2:0
Bit depth                                : 8 bits
Scan type                                : Progressive
Bits/(Pixel*Frame)                       : 0.177
Stream size                              : 1.15 GiB (82%)
Language                                 : English
Default                                  : No
Forced                                   : No
Color primaries                          : BT.709-5, BT.1361, IEC 61966-2-4, SMPTE RP177
Transfer characteristics                 : BT.709-5, BT.1361
Matrix coefficients                      : BT.709-5, BT.1361, IEC 61966-2-4 709, SMPTE RP177

Audio #1
ID                                       : 2
Format                                   : AC-3
Format/Info                              : Audio Coding 3
Mode extension                           : CM (complete main)
Format settings, Endianness              : Big
Codec ID                                 : A_AC3
Duration                                 : 41mn 57s
Bit rate mode                            : Constant
Bit rate                                 : 384 Kbps
Channel(s)                               : 6 channels
Channel positions                        : Front: L C R, Side: L R, LFE
Sampling rate                            : 48.0 KHz
Bit depth                                : 16 bits
Compression mode                         : Lossy
Stream size                              : 115 MiB (8%)
Language                                 : Russian
Default                                  : Yes
Forced                                   : No

Audio #2
ID                                       : 3
Format                                   : AC-3
Format/Info                              : Audio Coding 3
Mode extension                           : CM (complete main)
Format settings, Endianness              : Big
Codec ID                                 : A_AC3
Duration                                 : 41mn 57s
Bit rate mode                            : Constant
Bit rate                                 : 384 Kbps
Channel(s)                               : 6 channels
Channel positions                        : Front: L C R, Side: L R, LFE
Sampling rate                            : 48.0 KHz
Bit depth                                : 16 bits
Compression mode                         : Lossy
Stream size                              : 115 MiB (8%)
Language                                 : English
Default                                  : No
Forced                                   : No

Подготовка релиза:

Перевод • Дмитрий Микушин
Роли озвучивали • Константин Погодаев, Павел Ярощик, Наталья Ланц
Звукорежиссер • Павел Квентов
Постер • Ксения Просветова
Релиз подготовил • Gater
Скриншоты:


Все релизы сериала «Мыслить как преступник: За границей / Criminal Minds: Beyond Borders»

Смотреть Online

http://moonwalk.cc/serial/17643be57b1e3a35cc8a233a854f37d5/iframe
Детали торрента:
Название:Мыслить как преступник: За границей / Criminal Minds: Beyond Borders (2016) WEB-DL [H.264/720p-LQ] (сезон 1, серии 1-13 из 13) OMSKBIRD
Дата добавления:28 Май 2016 22:15:49
Размер:18,1 GB
Раздают:1
Качают:0
Форум:Зарубежные сериалы

All rights reserved © 2015-2018