TORRENTS43.COM

Скачать The Art of Noise - The Best of The Art of Noise (Art Works 12") (1992) [FLAC|Lossless|tracks + .cue] <Synth Pop, Experimental, Ambient>


The Art of Noise - The Best of The Art of Noise (Art Works 12")
Год: 1992
Жанр: Synth Pop, Experimental, Ambient
Издание: China Records – CHI 9013-2
Продолжительность: 01:04:48

Кодек: FLAC
Битрейт: Lossless
Тип рипа: tracks + .cue

Треклист:

01. Opus 4
02. Yebo (Mbaqanga mix) (feat. Mahlathini and The Mahotella Queens)
03. Instuments of Lightness (The Sequel) (The S1000 Power-Qquatsi dub mix)
04. Robinson Crusoe (The White Noise edit)
05. Peter Gunn (The Twang mix) (feat. Duane Eddy)
06. Paranoimia (extended version) (feat. Max Headroom)
08. Dragnet (Art of Noise '88 12'' mix)
07. Legacy (extended version)
09. Kiss (The AON mix) (feat. Tom Jones)
10. Something Always Happens

Отчёт EAC:

Код:

Exact Audio Copy V1.0 beta 3 from 29. August 2011

EAC extraction logfile from 7. December 2012, 22:46

Art of Noise / The Best of the Art of Noise: Art Works 12"

Used drive  : hp      DVD A  DS8A5LH   Adapter: 0  ID: 1

Read mode               : Secure
Utilize accurate stream : Yes
Defeat audio cache      : Yes
Make use of C2 pointers : No

Read offset correction                      : 6
Overread into Lead-In and Lead-Out          : No
Fill up missing offset samples with silence : Yes
Delete leading and trailing silent blocks   : No
Null samples used in CRC calculations       : Yes
Used interface                              : Native Win32 interface for Win NT & 2000
Gap handling                                : Appended to previous track

Used output format              : User Defined Encoder
Selected bitrate                : 896 kBit/s
Quality                         : High
Add ID3 tag                     : No
Command line compressor         : C:\Program Files\Exact Audio Copy\Flac\flac.exe
Additional command line options : -V -8 -T "Genre=%genre%" -T "Artist=%artist%" -T "Title=%title%" -T "Album=%albumtitle%" -T "Date=%year%" -T "Tracknumber=%tracknr%" -T "Comment=%comment%" %source%

TOC of the extracted CD

     Track |   Start  |  Length  | Start sector | End sector
    ---------------------------------------------------------
        1  |  0:00.00 |  2:00.60 |         0    |     9059
        2  |  2:00.60 |  7:09.30 |      9060    |    41264
        3  |  9:10.15 |  9:02.32 |     41265    |    81946
        4  | 18:12.47 |  6:06.08 |     81947    |   109404
        5  | 24:18.55 |  7:26.57 |    109405    |   142911
        6  | 31:45.37 |  6:42.65 |    142912    |   173126
        7  | 38:28.27 |  8:20.68 |    173127    |   210694
        8  | 46:49.20 |  7:16.12 |    210695    |   243406
        9  | 54:05.32 |  8:11.65 |    243407    |   280296
       10  | 62:17.22 |  2:30.33 |    280297    |   291579

Track  1

     Filename J:\NTR\Uploads\The Art of Noise - The Best of the Art of Noise- Art Works 12'' (1992) [FLAC]\01 - Art of Noise - Opus 4.wav

     Pre-gap length  0:00:02.00

     Peak level 52.6 %
     Extraction speed 2.1 X
     Track quality 99.9 %
     Test CRC 63175BC6
     Copy CRC 63175BC6
     Track not present in AccurateRip database
     Copy OK

Track  2

     Filename J:\NTR\Uploads\The Art of Noise - The Best of the Art of Noise- Art Works 12'' (1992) [FLAC]\02 - Art of Noise feat. Mahlathini and The Mahotella Queens - Yebo (Mbaqanga mix).wav

     Pre-gap length  0:00:00.03

     Peak level 99.9 %
     Extraction speed 3.5 X
     Track quality 100.0 %
     Test CRC AA197B50
     Copy CRC AA197B50
     Track not present in AccurateRip database
     Copy OK

Track  3

     Filename J:\NTR\Uploads\The Art of Noise - The Best of the Art of Noise- Art Works 12'' (1992) [FLAC]\03 - Art of Noise - Instuments of Lightness (The Sequel) (The S1000 Power-Qquatsi dub mix).wav

     Pre-gap length  0:00:00.03

     Peak level 75.9 %
     Extraction speed 4.1 X
     Track quality 100.0 %
     Test CRC 8B91285E
     Copy CRC 8B91285E
     Track not present in AccurateRip database
     Copy OK

Track  4

     Filename J:\NTR\Uploads\The Art of Noise - The Best of the Art of Noise- Art Works 12'' (1992) [FLAC]\04 - Art of Noise - Robinson Crusoe (The White Noise edit).wav

     Pre-gap length  0:00:00.02

     Peak level 80.8 %
     Extraction speed 4.4 X
     Track quality 100.0 %
     Test CRC 0080B8F0
     Copy CRC 0080B8F0
     Track not present in AccurateRip database
     Copy OK

Track  5

     Filename J:\NTR\Uploads\The Art of Noise - The Best of the Art of Noise- Art Works 12'' (1992) [FLAC]\05 - Art of Noise feat. Duane Eddy - Peter Gunn (The Twang mix).wav

     Pre-gap length  0:00:00.03

     Peak level 85.6 %
     Extraction speed 4.8 X
     Track quality 100.0 %
     Test CRC 6508A355
     Copy CRC 6508A355
     Track not present in AccurateRip database
     Copy OK

Track  6

     Filename J:\NTR\Uploads\The Art of Noise - The Best of the Art of Noise- Art Works 12'' (1992) [FLAC]\06 - Art of Noise feat. Max Headroom - Paranoimia (extended version).wav

     Pre-gap length  0:00:00.02

     Peak level 81.5 %
     Extraction speed 5.2 X
     Track quality 100.0 %
     Test CRC 95DC7C2A
     Copy CRC 95DC7C2A
     Track not present in AccurateRip database
     Copy OK

Track  7

     Filename J:\NTR\Uploads\The Art of Noise - The Best of the Art of Noise- Art Works 12'' (1992) [FLAC]\07 - Art of Noise - Legacy (extended version).wav

     Pre-gap length  0:00:00.02

     Peak level 81.9 %
     Extraction speed 5.6 X
     Track quality 100.0 %
     Test CRC FF99059F
     Copy CRC FF99059F
     Track not present in AccurateRip database
     Copy OK

Track  8

     Filename J:\NTR\Uploads\The Art of Noise - The Best of the Art of Noise- Art Works 12'' (1992) [FLAC]\08 - Art of Noise - Dragnet (Art of Noise '88 12'' mix).wav

     Pre-gap length  0:00:00.03

     Peak level 83.1 %
     Extraction speed 5.9 X
     Track quality 100.0 %
     Test CRC E6479091
     Copy CRC E6479091
     Track not present in AccurateRip database
     Copy OK

Track  9

     Filename J:\NTR\Uploads\The Art of Noise - The Best of the Art of Noise- Art Works 12'' (1992) [FLAC]\09 - Art of Noise feat. Tom Jones - Kiss (The AON mix).wav

     Pre-gap length  0:00:00.02

     Peak level 86.8 %
     Extraction speed 6.2 X
     Track quality 100.0 %
     Test CRC 2E00A67C
     Copy CRC 2E00A67C
     Track not present in AccurateRip database
     Copy OK

Track 10

     Filename J:\NTR\Uploads\The Art of Noise - The Best of the Art of Noise- Art Works 12'' (1992) [FLAC]\10 - Art of Noise - Something Always Happens.wav

     Pre-gap length  0:00:00.02

     Peak level 81.6 %
     Extraction speed 5.4 X
     Track quality 100.0 %
     Test CRC 7C403901
     Copy CRC 7C403901
     Track not present in AccurateRip database
     Copy OK

None of the tracks are present in the AccurateRip database

No errors occurred

End of status report

---- CUETools DB Plugin V2.1.4

[CTDB TOCID: Jjrkq5ATr.2tk8gIgFLUvIwymV4-] disk not present in database
Submit result: Jjrkq5ATr.2tk8gIgFLUvIwymV4- has been uploaded

==== Log checksum 0DBC2D729468D553DF79C2731AAC132D6330446FC90BD7D82B55F9C0DD270635 ====

Cue Sheet (.cue):

Код:

REM GENRE Electronic
REM DATE 1992
REM DISCID 750F2F0A
REM COMMENT "ExactAudioCopy v1.0b3"
PERFORMER "Art of Noise"
TITLE "The Best of the Art of Noise: Art Works 12'"
FILE "01 - Art of Noise - Opus 4.wav" WAVE
  TRACK 01 AUDIO
    TITLE "Opus 4"
    PERFORMER "Art of Noise"
    INDEX 01 00:00:00
  TRACK 02 AUDIO
    TITLE "Yebo (Mbaqanga mix)"
    PERFORMER "Art of Noise feat. Mahlathini and The Mahotella Queens"
    INDEX 00 02:00:57
FILE "02 - Art of Noise feat. Mahlathini and The Mahotella Queens - Yebo (Mbaqanga mix).wav" WAVE
    INDEX 01 00:00:00
  TRACK 03 AUDIO
    TITLE "Instuments of Lightness (The Sequel) (The S1000 Power-Qquatsi dub mix)"
    PERFORMER "Art of Noise"
    INDEX 00 07:09:27
FILE "03 - Art of Noise - Instuments of Lightness (The Sequel) (The S1000 Power-Qquatsi dub mix).wav" WAVE
    INDEX 01 00:00:00
  TRACK 04 AUDIO
    TITLE "Robinson Crusoe (The White Noise edit)"
    PERFORMER "Art of Noise"
    INDEX 00 09:02:30
FILE "04 - Art of Noise - Robinson Crusoe (The White Noise edit).wav" WAVE
    INDEX 01 00:00:00
  TRACK 05 AUDIO
    TITLE "Peter Gunn (The Twang mix)"
    PERFORMER "Art of Noise feat. Duane Eddy"
    INDEX 00 06:06:05
FILE "05 - Art of Noise feat. Duane Eddy - Peter Gunn (The Twang mix).wav" WAVE
    INDEX 01 00:00:00
  TRACK 06 AUDIO
    TITLE "Paranoimia (extended version)"
    PERFORMER "Art of Noise feat. Max Headroom"
    INDEX 00 07:26:55
FILE "06 - Art of Noise feat. Max Headroom - Paranoimia (extended version).wav" WAVE
    INDEX 01 00:00:00
  TRACK 07 AUDIO
    TITLE "Legacy (extended version)"
    PERFORMER "Art of Noise"
    INDEX 00 06:42:63
FILE "07 - Art of Noise - Legacy (extended version).wav" WAVE
    INDEX 01 00:00:00
  TRACK 08 AUDIO
    TITLE "Dragnet (Art of Noise '88 12' mix)"
    PERFORMER "Art of Noise"
    INDEX 00 08:20:65
FILE "08 - Art of Noise - Dragnet (Art of Noise '88 12'' mix).wav" WAVE
    INDEX 01 00:00:00
  TRACK 09 AUDIO
    TITLE "Kiss (The AON mix)"
    PERFORMER "Art of Noise feat. Tom Jones"
    INDEX 00 07:16:10
FILE "09 - Art of Noise feat. Tom Jones - Kiss (The AON mix).wav" WAVE
    INDEX 01 00:00:00
  TRACK 10 AUDIO
    TITLE "Something Always Happens"
    PERFORMER "Art of Noise"
    INDEX 00 08:11:63
FILE "10 - Art of Noise - Something Always Happens.wav" WAVE
    INDEX 01 00:00:00

Отчёт auCDtect Task manager:

Код:

-----------------------

DON'T MODIFY THIS FILE

-----------------------

PERFORMER: auCDtect Task Manager, ver. 1.6.0 RC1 build 1.6.0.1
Copyright (c) 2008-2010 y-soft. All rights reserved
http://y-soft.org

ANALYZER: auCDtect: CD records authenticity detector, version 0.8.2
Copyright (c) 2004 Oleg Berngardt. All rights reserved.
Copyright (c) 2004 Alexander Djourik. All rights reserved.

FILE: 10 - Art of Noise - Something Always Happens.FLAC
  Size: 14532000 Hash: 7E5551B4364A0E0FF2A0B241B2D5755A Accuracy: -m0
  Conclusion: CDDA 100%
  Signature: 4D1A3233E53C0BCCDDA2819626EBE0630A3804AB
FILE: 09 - Art of Noise feat. Tom Jones - Kiss (The AON mix).FLAC
  Size: 50302286 Hash: 6067BBFC9FB030C0B7FB48D8C177570B Accuracy: -m0
  Conclusion: CDDA 100%
  Signature: ADEC98F8F15B863B423A86849F462624E04C1642
FILE: 08 - Art of Noise - Dragnet (Art of Noise '88 12'' mix).FLAC
  Size: 44149770 Hash: 3244F0E5C77D6090A188B6624AFBB103 Accuracy: -m0
  Conclusion: CDDA 100%
  Signature: 94100FE3D12120A9A4E4F845B3918EBAA98416E6
FILE: 07 - Art of Noise - Legacy (extended version).FLAC
  Size: 50869617 Hash: D80580081CE1970163F0A8C5CDD2FF17 Accuracy: -m0
  Conclusion: MPEG 95%
  Signature: 90EFD280FD8FDFE80BF96CA7AD120FDF6D141B26
FILE: 06 - Art of Noise feat. Max Headroom - Paranoimia (extended version).FLAC
  Size: 40042017 Hash: A514949DB6ED8B681AD8B026F2F08768 Accuracy: -m0
  Conclusion: CDDA 85%
  Signature: 0BDA7D49F68628B4BADC904C8916991A0308619E
FILE: 05 - Art of Noise feat. Duane Eddy - Peter Gunn (The Twang mix).FLAC
  Size: 44724768 Hash: 702D77CF6C5E8CB7D25AD646D95FE0C8 Accuracy: -m0
  Conclusion: CDDA 100%
  Signature: 2C806BD69D4EC2C219620771C718FB5ECF137B0D
FILE: 04 - Art of Noise - Robinson Crusoe (The White Noise edit).FLAC
  Size: 34239742 Hash: 7284211F3529D185CC5D8D7097F68399 Accuracy: -m0
  Conclusion: CDDA 100%
  Signature: C78626044AD00AE33AE4B5EC71AD585C7C9A4A28
FILE: 03 - Art of Noise - Instuments of Lightness (The Sequel) (The S1000 Power-Qquatsi dub mix).FLAC
  Size: 65246300 Hash: 3383E54ABD03C8118C558B99DBFED2F0 Accuracy: -m0
  Conclusion: CDDA 100%
  Signature: 5FDFD39924EBB5F593D771529B6DB1F00B0CC7B4
FILE: 02 - Art of Noise feat. Mahlathini and The Mahotella Queens - Yebo (Mbaqanga mix).FLAC
  Size: 50135571 Hash: 4C3C1F3E130DD789B1397D330C9898F8 Accuracy: -m0
  Conclusion: CDDA 100%
  Signature: 33324D9C0E69C907B53EC80860B830A850149B5E
FILE: 01 - Art of Noise - Opus 4.FLAC
  Size: 10624832 Hash: 76E412D3FA13A2DAC26C0A837D3396C8 Accuracy: -m0
  Conclusion: CDDA 100%
  Signature: BEE1B60F80175599333F96124A7E0052D14CADB7

Спектрограмма:



YouTube YouTube




Поглощение/вытеснение
Только с согласия релизера

gvm55

Детали торрента:
Название:The Art of Noise - The Best of The Art of Noise (Art Works 12") (1992) [FLAC|Lossless|tracks + .cue] <Synth Pop, Experimental, Ambient>
Дата добавления:18 Мар 2016 20:46:00
Размер:387 MB
Раздают:1
Качают:0
Форум:Experimental, Industrial, EBM, Dark Electro (Lossless)

All rights reserved © 2015-2018